  0
SECTION
  2
HEADER
  9
$ACADVER
  1
AC1009
  9
$INSBASE
 10
0.0
 20
0.0
 30
0.0
  9
$EXTMIN
 10
50.0
 20
0.0
 30
0.0
  9
$EXTMAX
 10
345.218226
 20
290.0
 30
0.0
  9
$LIMMIN
 10
0.0
 20
0.0
  9
$LIMMAX
 10
420.0
 20
297.0
  9
$ORTHOMODE
 70
     1
  9
$REGENMODE
 70
     1
  9
$FILLMODE
 70
     1
  9
$QTEXTMODE
 70
     0
  9
$MIRRTEXT
 70
     1
  9
$DRAGMODE
 70
     2
  9
$LTSCALE
 40
1.0
  9
$OSMODE
 70
  1023
  9
$ATTMODE
 70
     1
  9
$TEXTSIZE
 40
5.0
  9
$TRACEWID
 40
1.0
  9
$TEXTSTYLE
  7
STANDARD
  9
$CLAYER
  8
COTATION
  9
$CELTYPE
  6
BYLAYER
  9
$CECOLOR
 62
   256
  9
$DIMSCALE
 40
1.0
  9
$DIMASZ
 40
2.5
  9
$DIMEXO
 40
0.625
  9
$DIMDLI
 40
3.75
  9
$DIMRND
 40
0.0
  9
$DIMDLE
 40
0.0
  9
$DIMEXE
 40
1.25
  9
$DIMTP
 40
0.0
  9
$DIMTM
 40
0.0
  9
$DIMTXT
 40
3.0
  9
$DIMCEN
 40
2.5
  9
$DIMTSZ
 40
0.0
  9
$DIMTOL
 70
     0
  9
$DIMLIM
 70
     0
  9
$DIMTIH
 70
     0
  9
$DIMTOH
 70
     0
  9
$DIMSE1
 70
     0
  9
$DIMSE2
 70
     0
  9
$DIMTAD
 70
     1
  9
$DIMZIN
 70
     8
  9
$DIMBLK
  1

  9
$DIMASO
 70
     1
  9
$DIMSHO
 70
     1
  9
$DIMPOST
  1

  9
$DIMAPOST
  1

  9
$DIMALT
 70
     0
  9
$DIMALTD
 70
     4
  9
$DIMALTF
 40
0.0394
  9
$DIMLFAC
 40
1.0
  9
$DIMTOFL
 70
     1
  9
$DIMTVP
 40
0.0
  9
$DIMTIX
 70
     0
  9
$DIMSOXD
 70
     0
  9
$DIMSAH
 70
     0
  9
$DIMBLK1
  1

  9
$DIMBLK2
  1

  9
$DIMSTYLE
  2
STANDARD_WS
  9
$DIMCLRD
 70
     0
  9
$DIMCLRE
 70
     0
  9
$DIMCLRT
 70
     0
  9
$DIMTFAC
 40
1.0
  9
$DIMGAP
 40
0.8
  9
$LUNITS
 70
     2
  9
$LUPREC
 70
     4
  9
$SKETCHINC
 40
1.0
  9
$FILLETRAD
 40
10.0
  9
$AUNITS
 70
     0
  9
$AUPREC
 70
     0
  9
$MENU
  1
acad
  9
$ELEVATION
 40
0.0
  9
$PELEVATION
 40
0.0
  9
$THICKNESS
 40
0.0
  9
$LIMCHECK
 70
     0
  9
$BLIPMODE
 70
     0
  9
$CHAMFERA
 40
10.0
  9
$CHAMFERB
 40
10.0
  9
$SKPOLY
 70
     0
  9
$TDCREATE
 40
2453368.848452
  9
$TDUPDATE
 40
2453368.883281
  9
$TDINDWG
 40
0.034829
  9
$TDUSRTIMER
 40
0.034829
  9
$USRTIMER
 70
     1
  9
$ANGBASE
 50
0.0
  9
$ANGDIR
 70
     0
  9
$PDMODE
 70
     0
  9
$PDSIZE
 40
0.0
  9
$PLINEWID
 40
0.0
  9
$COORDS
 70
     1
  9
$SPLFRAME
 70
     0
  9
$SPLINETYPE
 70
     6
  9
$SPLINESEGS
 70
     8
  9
$ATTDIA
 70
     0
  9
$ATTREQ
 70
     1
  9
$HANDLING
 70
     1
  9
$HANDSEED
  5
79D
  9
$SURFTAB1
 70
     6
  9
$SURFTAB2
 70
     6
  9
$SURFTYPE
 70
     6
  9
$SURFU
 70
     6
  9
$SURFV
 70
     6
  9
$UCSNAME
  2

  9
$UCSORG
 10
0.0
 20
0.0
 30
0.0
  9
$UCSXDIR
 10
1.0
 20
0.0
 30
0.0
  9
$UCSYDIR
 10
0.0
 20
1.0
 30
0.0
  9
$PUCSNAME
  2

  9
$PUCSORG
 10
0.0
 20
0.0
 30
0.0
  9
$PUCSXDIR
 10
1.0
 20
0.0
 30
0.0
  9
$PUCSYDIR
 10
0.0
 20
1.0
 30
0.0
  9
$USERI1
 70
     0
  9
$USERI2
 70
     0
  9
$USERI3
 70
     0
  9
$USERI4
 70
     0
  9
$USERI5
 70
     0
  9
$USERR1
 40
0.0
  9
$USERR2
 40
0.0
  9
$USERR3
 40
0.0
  9
$USERR4
 40
0.0
  9
$USERR5
 40
0.0
  9
$WORLDVIEW
 70
     1
  9
$SHADEDGE
 70
     3
  9
$SHADEDIF
 70
    70
  9
$TILEMODE
 70
     1
  9
$MAXACTVP
 70
    48
  9
$PLIMCHECK
 70
     0
  9
$PEXTMIN
 10
1.000000E+020
 20
1.000000E+020
 30
1.000000E+020
  9
$PEXTMAX
 10
-1.000000E+020
 20
-1.000000E+020
 30
-1.000000E+020
  9
$PLIMMIN
 10
0.0
 20
0.0
  9
$PLIMMAX
 10
420.0
 20
297.0
  9
$UNITMODE
 70
     0
  9
$VISRETAIN
 70
     1
  9
$PLINEGEN
 70
     0
  9
$PSLTSCALE
 70
     1
  0
ENDSEC
  0
SECTION
  2
TABLES
  0
TABLE
  2
VPORT
 70
    16
  0
VPORT
  2
*ACTIVE
 70
     0
 10
0.0
 20
0.0
 11
1.0
 21
1.0
 12
212.188827
 22
123.409732
 13
0.0
 23
0.0
 14
10.0
 24
10.0
 15
10.0
 25
10.0
 16
0.0
 26
0.0
 36
1.0
 17
0.0
 27
0.0
 37
0.0
 40
456.562077
 41
1.59176
 42
50.0
 43
0.0
 44
0.0
 50
0.0
 51
0.0
 71
     0
 72
   100
 73
     1
 74
     1
 75
     1
 76
     1
 77
     0
 78
     0
  0
ENDTAB
  0
TABLE
  2
LTYPE
 70
     3
  0
LTYPE
  2
CONTINUOUS
 70
     0
  3
Solid line
 72
    65
 73
     0
 40
0.0
  0
LTYPE
  2
CACHE
 70
     0
  3
Caché __ __ __ __ __ __ __ __ __ __ __ __ __ __
 72
    65
 73
     2
 40
9.525
 49
6.35
 49
-3.175
  0
LTYPE
  2
AXES2
 70
     0
  3
Centre (x.5) ___ _ ___ _ ___ _ ___ _ ___ _ ___
 72
    65
 73
     4
 40
28.575
 49
19.05
 49
-3.175
 49
3.175
 49
-3.175
  0
ENDTAB
  0
TABLE
  2
LAYER
 70
     6
  0
LAYER
  2
0
 70
     0
 62
     7
  6
CONTINUOUS
  0
LAYER
  2
CACHE
 70
     0
 62
     3
  6
CACHE
  0
LAYER
  2
AXES2
 70
     0
 62
     6
  6
AXES2
  0
LAYER
  2
COTATION
 70
     0
 62
     1
  6
CONTINUOUS
  0
LAYER
  2
FIN
 70
     0
 62
     1
  6
CONTINUOUS
  0
LAYER
  2
DEFPOINTS
 70
     0
 62
     7
  6
CONTINUOUS
  0
ENDTAB
  0
TABLE
  2
STYLE
 70
     2
  0
STYLE
  2
STANDARD
 70
     0
 40
0.0
 41
1.0
 50
0.0
 71
     0
 42
5.0
  3
txt
  4

  0
STYLE
  2
COT1
 70
     0
 40
0.0
 41
1.0
 50
0.0
 71
     0
 42
10.0
  3
TXT.SHX
  4

  0
ENDTAB
  0
TABLE
  2
VIEW
 70
     0
  0
ENDTAB
  0
TABLE
  2
UCS
 70
     0
  0
ENDTAB
  0
TABLE
  2
APPID
 70
     3
  0
APPID
  2
ACAD
 70
     0
  0
APPID
  2
CONTENTTABDATA
 70
     0
  0
APPID
  2
CONTENTCURRENTTAB
 70
     0
  0
ENDTAB
  0
TABLE
  2
DIMSTYLE
 70
     2
  0
DIMSTYLE
  2
STANDARD
 70
     0
  3

  4

  5

  6

  7

 40
1.0
 41
0.18
 42
0.0625
 43
0.38
 44
0.18
 45
0.0
 46
0.0
 47
0.0
 48
0.0
140
0.18
141
0.09
142
0.0
143
25.4
144
1.0
145
0.0
146
1.0
147
0.09
 71
     0
 72
     0
 73
     1
 74
     1
 75
     0
 76
     0
 77
     0
 78
     0
170
     0
171
     2
172
     0
173
     0
174
     0
175
     0
176
     0
177
     0
178
     0
  0
DIMSTYLE
  2
STANDARD_WS
 70
     0
  3

  4

  5

  6

  7

 40
1.0
 41
2.5
 42
0.625
 43
3.75
 44
1.25
 45
0.0
 46
0.0
 47
0.0
 48
0.0
140
2.5
141
2.5
142
0.0
143
0.0394
144
1.0
145
0.0
146
1.0
147
0.625
 71
     0
 72
     0
 73
     0
 74
     0
 75
     0
 76
     0
 77
     1
 78
     8
170
     0
171
     4
172
     1
173
     0
174
     0
175
     0
176
     0
177
     0
178
     0
  0
ENDTAB
  0
ENDSEC
  0
SECTION
  2
BLOCKS
  0
BLOCK
  8
0
  2
$MODEL_SPACE
 70
     0
 10
0.0
 20
0.0
 30
0.0
  3
$MODEL_SPACE
  1

  0
ENDBLK
  5
1A
  8
0
  0
BLOCK
 67
     1
  8
0
  2
$PAPER_SPACE
 70
     0
 10
0.0
 20
0.0
 30
0.0
  3
$PAPER_SPACE
  1

  0
ENDBLK
  5
17
 67
     1
  8
0
  0
BLOCK
  8
0
  2
A$C5F2F67D8
 70
     0
 10
0.0
 20
0.0
 30
0.0
  3
A$C5F2F67D8
  1

  0
POLYLINE
  5
3E
  8
0
 66
     1
 10
0.0
 20
0.0
 30
0.0
 70
     1
  0
VERTEX
  5
669
  8
0
 10
88.97841
 20
47.036669
 30
0.0
  0
VERTEX
  5
66A
  8
0
 10
3.17841
 20
47.036669
 30
0.0
  0
VERTEX
  5
66B
  8
0
 10
3.17841
 20
57.036669
 30
0.0
  0
VERTEX
  5
66C
  8
0
 10
88.97841
 20
57.036669
 30
0.0
  0
SEQEND
  5
66D
  8
0
  0
POLYLINE
  5
3F
  8
0
 66
     1
 10
0.0
 20
0.0
 30
0.0
 70
     1
  0
VERTEX
  5
66E
  8
0
 10
3.17841
 20
47.036669
 30
0.0
  0
VERTEX
  5
66F
  8
0
 10
88.97841
 20
47.036669
 30
0.0
  0
VERTEX
  5
670
  8
0
 10
88.97841
 20
113.036669
 30
0.0
  0
VERTEX
  5
671
  8
0
 10
3.17841
 20
113.036669
 30
0.0
  0
SEQEND
  5
672
  8
0
  0
POLYLINE
  5
40
  8
0
 66
     1
 10
0.0
 20
0.0
 30
0.0
 70
     1
  0
VERTEX
  5
673
  8
0
 10
9.57841
 20
47.036669
 30
0.0
  0
VERTEX
  5
674
  8
0
 10
82.57841
 20
47.036669
 30
0.0
  0
VERTEX
  5
675
  8
0
 10
82.57841
 20
46.036669
 30
0.0
  0
VERTEX
  5
676
  8
0
 10
9.57841
 20
46.036669
 30
0.0
  0
SEQEND
  5
677
  8
0
  0
POLYLINE
  5
41
  8
0
 66
     1
 10
0.0
 20
0.0
 30
0.0
  0
VERTEX
  5
678
  8
0
 10
46.904735
 20
125.215557
 30
0.0
  0
VERTEX
  5
679
  8
0
 10
8.17841
 20
125.215557
 30
0.0
 42
-0.414214
  0
VERTEX
  5
67A
  8
0
 10
3.17841
 20
130.215557
 30
0.0
  0
VERTEX
  5
67B
  8
0
 10
3.17841
 20
167.59193
 30
0.0
  0
SEQEND
  5
67C
  8
0
  0
POLYLINE
  5
42
  8
0
 66
     1
 10
0.0
 20
0.0
 30
0.0
  0
VERTEX
  5
67D
  8
0
 10
46.904735
 20
211.015557
 30
0.0
  0
VERTEX
  5
67E
  8
0
 10
8.17841
 20
211.015557
 30
0.0
 42
0.414214
  0
VERTEX
  5
67F
  8
0
 10
3.17841
 20
206.015557
 30
0.0
  0
VERTEX
  5
680
  8
0
 10
3.17841
 20
168.639184
 30
0.0
  0
SEQEND
  5
681
  8
0
  0
CIRCLE
  5
43
  8
0
 10
46.07841
 20
168.115557
 30
0.0
 40
36.5
  0
LINE
  5
44
  8
AXES2
 10
92.156817
 20
168.115557
 30
0.0
 11
0.000002
 21
168.115557
 31
0.0
  0
CIRCLE
  5
45
  8
0
 10
11.27841
 20
133.315557
 30
0.0
 40
3.3
  0
LINE
  5
46
  8
AXES2
 10
11.27841
 20
142.143553
 30
0.0
 11
11.27841
 21
124.487561
 31
0.0
  0
LINE
  5
47
  8
AXES2
 10
1.613834
 20
133.315557
 30
0.0
 11
20.942985
 21
133.315557
 31
0.0
  0
ARC
  5
48
  8
CACHE
 10
11.27841
 20
133.315557
 30
0.0
 40
6.340423
 50
0.0
 51
90.0
  0
LINE
  5
49
  8
CACHE
 10
17.618832
 20
133.315557
 30
0.0
 11
17.618832
 21
125.215557
 31
0.0
  0
LINE
  5
4A
  8
CACHE
 10
11.27841
 20
139.65598
 30
0.0
 11
3.17841
 21
139.65598
 31
0.0
  0
LINE
  5
4B
  8
AXES2
 10
11.27841
 20
65.668102
 30
0.0
 11
11.27841
 21
41.520315
 31
0.0
  0
LINE
  5
4C
  8
CACHE
 10
14.57841
 20
57.036669
 30
0.0
 11
14.57841
 21
47.036669
 31
0.0
  0
LINE
  5
4D
  8
CACHE
 10
7.97841
 20
57.036669
 30
0.0
 11
7.97841
 21
47.036669
 31
0.0
  0
LINE
  5
4E
  8
CACHE
 10
11.27841
 20
196.575135
 30
0.0
 11
3.17841
 21
196.575135
 31
0.0
  0
LINE
  5
4F
  8
CACHE
 10
17.618832
 20
202.915557
 30
0.0
 11
17.618832
 21
211.015557
 31
0.0
  0
ARC
  5
50
  8
CACHE
 10
11.27841
 20
202.915557
 30
0.0
 40
6.340423
 50
270.0
 51
0.0
  0
LINE
  5
51
  8
AXES2
 10
1.613834
 20
202.915557
 30
0.0
 11
20.942985
 21
202.915557
 31
0.0
  0
LINE
  5
52
  8
AXES2
 10
11.27841
 20
194.087561
 30
0.0
 11
11.27841
 21
211.743553
 31
0.0
  0
CIRCLE
  5
53
  8
0
 10
11.27841
 20
202.915557
 30
0.0
 40
3.3
  0
POLYLINE
  5
54
  8
0
 66
     1
 10
0.0
 20
0.0
 30
0.0
 70
     1
  0
VERTEX
  5
682
  8
0
 10
141.049432
 20
17.836669
 30
0.0
  0
VERTEX
  5
683
  8
0
 10
150.589432
 20
17.836669
 30
0.0
  0
VERTEX
  5
684
  8
0
 10
150.589432
 20
46.036669
 30
0.0
  0
VERTEX
  5
685
  8
0
 10
141.049432
 20
46.036669
 30
0.0
  0
SEQEND
  5
686
  8
0
  0
LINE
  5
55
  8
AXES2
 10
145.819432
 20
117.973188
 30
0.0
 11
145.819432
 21
11.084059
 31
0.0
  0
POLYLINE
  5
56
  8
0
 66
     1
 10
0.0
 20
0.0
 30
0.0
 70
     1
  0
VERTEX
  5
687
  8
0
 10
39.07841
 20
46.036669
 30
0.0
  0
VERTEX
  5
688
  8
0
 10
53.07841
 20
46.036669
 30
0.0
  0
VERTEX
  5
689
  8
0
 10
53.07841
 20
10.836669
 30
0.0
  0
VERTEX
  5
68A
  8
0
 10
39.07841
 20
10.836669
 30
0.0
  0
SEQEND
  5
68B
  8
0
  0
TEXT
  8
0
  40
4.35268
  5
785
  72
0
  71
0
 10
256.461
 20
23.1950
 30
0.000000
  1
M12
  7
COT1
  0
POLYLINE
  5
58
  8
0
 66
     1
 10
0.0
 20
0.0
 30
0.0
 70
     1
  0
VERTEX
  5
68C
  8
0
 10
255.196983
 20
20.619844
 30
0.0
  0
VERTEX
  5
68D
  8
0
 10
267.196983
 20
20.619844
 30
0.0
  0
VERTEX
  5
68E
  8
0
 10
265.896983
 20
21.919844
 30
0.0
  0
VERTEX
  5
68F
  8
0
 10
256.496983
 20
21.919844
 30
0.0
  0
SEQEND
  5
690
  8
0
  0
LINE
  5
59
  8
0
 10
256.447474
 20
18.996986
 30
0.0
 11
265.947474
 21
18.996986
 31
0.0
  0
LINE
  5
5A
  8
0
 10
256.447474
 20
8.996986
 30
0.0
 11
265.947474
 21
8.996986
 31
0.0
  0
POLYLINE
  5
5B
  8
0
 66
     1
 10
0.0
 20
0.0
 30
0.0
 70
     1
  0
VERTEX
  5
691
  8
0
 10
141.049432
 20
17.836669
 30
0.0
  0
VERTEX
  5
692
  8
0
 10
150.589432
 20
17.836669
 30
0.0
  0
VERTEX
  5
693
  8
0
 10
149.789432
 20
17.036669
 30
0.0
  0
VERTEX
  5
694
  8
0
 10
141.849432
 20
17.036669
 30
0.0
  0
SEQEND
  5
695
  8
0
  0
POLYLINE
  5
5C
  8
0
 66
     1
 10
0.0
 20
0.0
 30
0.0
 70
     1
  0
VERTEX
  5
696
  8
0
 10
39.87841
 20
10.036669
 30
0.0
  0
VERTEX
  5
697
  8
0
 10
52.27841
 20
10.036669
 30
0.0
  0
VERTEX
  5
698
  8
0
 10
53.07841
 20
10.836669
 30
0.0
  0
VERTEX
  5
699
  8
0
 10
39.07841
 20
10.836669
 30
0.0
  0
SEQEND
  5
69A
  8
0
  0
TEXT
  8
0
  40
4.35268
  5
786
  72
0
  71
0
 10
231.297
 20
12.9642
 30
0.000000
  1
M10
  7
COT1
  0
TEXT
  8
0
  40
4.35268
  5
787
  72
0
  71
0
 10
190.038
 20
8.94900
 30
0.000000
  1
M6
  7
COT1
  0
TEXT
  8
0
  40
4.35268
  5
788
  72
0
  71
0
 10
211.504
 20
11.3023
 30
0.000000
  1
M8
  7
COT1
  0
LINE
  5
60
  8
0
 10
251.697474
 20
18.240986
 30
0.0
 11
251.697474
 21
9.752986
 31
0.0
  0
ARC
  5
61
  8
0
 10
256.447474
 20
3.696697
 30
0.0
 40
15.300289
 50
71.913548
 51
108.086452
  0
LINE
  5
62
  8
0
 10
261.197474
 20
18.240986
 30
0.0
 11
261.197474
 21
9.752986
 31
0.0
  0
ARC
  5
63
  8
0
 10
256.447474
 20
24.297274
 30
0.0
 40
15.300289
 50
251.913548
 51
288.086452
  0
LINE
  5
64
  8
0
 10
255.196983
 20
20.619844
 30
0.0
 11
255.196983
 21
18.996984
 31
0.0
  0
LINE
  5
65
  8
FIN
 10
256.696983
 20
20.619844
 30
0.0
 11
256.696983
 21
18.996984
 31
0.0
  0
LINE
  5
66
  8
0
 10
241.197669
 20
10.619844
 30
0.0
 11
241.197669
 21
8.996984
 31
0.0
  0
LINE
  5
67
  8
FIN
 10
239.697104
 20
10.619844
 30
0.0
 11
239.697669
 21
8.996984
 31
0.0
  0
LINE
  5
68
  8
FIN
 10
232.696983
 20
10.619844
 30
0.0
 11
232.696983
 21
8.996984
 31
0.0
  0
LINE
  5
69
  8
0
 10
231.196983
 20
10.619844
 30
0.0
 11
231.196983
 21
8.996984
 31
0.0
  0
POLYLINE
  5
6A
  8
0
 66
     1
 10
0.0
 20
0.0
 30
0.0
 70
     1
  0
VERTEX
  5
69B
  8
0
 10
231.196983
 20
10.619844
 30
0.0
  0
VERTEX
  5
69C
  8
0
 10
241.196983
 20
10.619844
 30
0.0
  0
VERTEX
  5
69D
  8
0
 10
239.896983
 20
11.919844
 30
0.0
  0
VERTEX
  5
69E
  8
0
 10
232.496983
 20
11.919844
 30
0.0
  0
SEQEND
  5
69F
  8
0
  0
LINE
  5
6B
  8
0
 10
231.947481
 20
8.996986
 30
0.0
 11
240.447466
 21
8.996986
 31
0.0
  0
ARC
  5
6C
  8
0
 10
240.447466
 20
-3.32707
 30
0.0
 40
12.324056
 50
69.827153
 51
110.172847
  0
ARC
  5
6D
  8
0
 10
231.947481
 20
-3.32707
 30
0.0
 40
12.324056
 50
69.827153
 51
110.172847
  0
LINE
  5
6E
  8
COTATION
 10
210.93365
 20
7.799998
 30
0.0
 11
210.93365
 21
6.499998
 31
0.0
  0
POLYLINE
  5
6F
  8
0
 66
     1
 10
0.0
 20
0.0
 30
0.0
 70
     1
  0
VERTEX
  5
6A0
  8
0
 10
210.240046
 20
6.499998
 30
0.0
  0
VERTEX
  5
6A1
  8
0
 10
210.240046
 20
7.799998
 30
0.0
  0
VERTEX
  5
6A2
  8
0
 10
218.240046
 20
7.799998
 30
0.0
  0
VERTEX
  5
6A3
  8
0
 10
218.240046
 20
6.499998
 30
0.0
  0
SEQEND
  5
6A4
  8
0
  0
POLYLINE
  5
70
  8
0
 66
     1
 10
0.0
 20
0.0
 30
0.0
  0
VERTEX
  5
6A5
  8
0
 10
218.240046
 20
7.799998
 30
0.0
  0
VERTEX
  5
6A6
  8
0
 10
217.540046
 20
8.499998
 30
0.0
  0
VERTEX
  5
6A7
  8
0
 10
210.940046
 20
8.499998
 30
0.0
  0
VERTEX
  5
6A8
  8
0
 10
210.240046
 20
7.799998
 30
0.0
  0
SEQEND
  5
6A9
  8
0
  0
LINE
  5
71
  8
COTATION
 10
217.546441
 20
7.799998
 30
0.0
 11
217.546441
 21
6.499998
 31
0.0
  0
LINE
  5
72
  8
0
 10
217.79373
 20
6.499998
 30
0.0
 11
210.93365
 21
6.499998
 31
0.0
  0
ARC
  5
73
  8
0
 10
217.490046
 20
-3.170141
 30
0.0
 40
9.670139
 50
70.361399
 51
109.638601
  0
ARC
  5
74
  8
0
 10
210.990046
 20
-3.170141
 30
0.0
 40
9.670139
 50
70.361399
 51
109.638601
  0
LINE
  5
75
  8
FIN
 10
265.697104
 20
20.619844
 30
0.0
 11
265.697669
 21
18.996984
 31
0.0
  0
LINE
  5
76
  8
0
 10
267.197669
 20
20.619844
 30
0.0
 11
267.197669
 21
18.996984
 31
0.0
  0
CIRCLE
  5
77
  8
CACHE
 10
145.819432
 20
168.115557
 30
0.0
 40
43.5
  0
CIRCLE
  5
78
  8
0
 10
225.861403
 20
168.115557
 30
0.0
 40
3.175
  0
ARC
  5
79
  8
0
 10
145.819432
 20
168.115557
 30
0.0
 40
43.5
 50
340.480655
 51
19.519345
  0
ARC
  5
7A
  8
0
 10
145.819432
 20
168.115557
 30
0.0
 40
43.5
 50
160.480655
 51
199.519345
  0
LINE
  5
7B
  8
AXES2
 10
145.819432
 20
216.42678
 30
0.0
 11
145.819432
 21
119.804334
 31
0.0
  0
CIRCLE
  5
7C
  8
0
 10
145.819432
 20
168.115557
 30
0.0
 40
36.5
  0
CIRCLE
  5
7D
  8
0
 10
145.819432
 20
168.115557
 30
0.0
 40
4.7625
  0
CIRCLE
  5
7E
  8
0
 10
46.07841
 20
168.115557
 30
0.0
 40
7.0
  0
LINE
  5
7F
  8
AXES2
 10
46.07841
 20
216.42678
 30
0.0
 11
46.07841
 21
119.804334
 31
0.0
  0
POLYLINE
  5
80
  8
0
 66
     1
 10
0.0
 20
0.0
 30
0.0
  0
VERTEX
  5
6AA
  8
0
 10
45.252085
 20
125.215557
 30
0.0
  0
VERTEX
  5
6AB
  8
0
 10
83.97841
 20
125.215557
 30
0.0
 42
0.414214
  0
VERTEX
  5
6AC
  8
0
 10
88.97841
 20
130.215557
 30
0.0
  0
VERTEX
  5
6AD
  8
0
 10
88.97841
 20
167.59193
 30
0.0
  0
SEQEND
  5
6AE
  8
0
  0
CIRCLE
  5
81
  8
CACHE
 10
225.861403
 20
168.115557
 30
0.0
 40
20.0
  0
LINE
  5
82
  8
AXES2
 10
225.861403
 20
199.039336
 30
0.0
 11
225.861403
 21
137.191778
 31
0.0
  0
CIRCLE
  5
83
  8
0
 10
225.861403
 20
168.115557
 30
0.0
 40
28.0
  0
POLYLINE
  5
84
  8
0
 66
     1
 10
0.0
 20
0.0
 30
0.0
 70
     1
  0
VERTEX
  5
6AF
  8
0
 10
197.861403
 20
194.115557
 30
0.0
  0
VERTEX
  5
6B0
  8
0
 10
197.861403
 20
142.115557
 30
0.0
 42
0.414214
  0
VERTEX
  5
6B1
  8
0
 10
199.861403
 20
140.115557
 30
0.0
  0
VERTEX
  5
6B2
  8
0
 10
251.861403
 20
140.115557
 30
0.0
 42
0.414214
  0
VERTEX
  5
6B3
  8
0
 10
253.861403
 20
142.115557
 30
0.0
  0
VERTEX
  5
6B4
  8
0
 10
253.861403
 20
194.115557
 30
0.0
 42
0.414214
  0
VERTEX
  5
6B5
  8
0
 10
251.861403
 20
196.115557
 30
0.0
  0
VERTEX
  5
6B6
  8
0
 10
199.861403
 20
196.115557
 30
0.0
 42
0.414214
  0
SEQEND
  5
6B7
  8
0
  0
POLYLINE
  5
85
  8
0
 66
     1
 10
0.0
 20
0.0
 30
0.0
  0
VERTEX
  5
6B8
  8
0
 10
109.319432
 20
47.036669
 30
0.0
  0
VERTEX
  5
6B9
  8
0
 10
109.319432
 20
46.036669
 30
0.0
  0
VERTEX
  5
6BA
  8
0
 10
182.319432
 20
46.036669
 30
0.0
  0
VERTEX
  5
6BB
  8
0
 10
182.319432
 20
47.036669
 30
0.0
  0
SEQEND
  5
6BC
  8
0
  0
POLYLINE
  5
86
  8
0
 66
     1
 10
0.0
 20
0.0
 30
0.0
 70
     1
  0
VERTEX
  5
6BD
  8
0
 10
102.319432
 20
47.036669
 30
0.0
  0
VERTEX
  5
6BE
  8
0
 10
189.319432
 20
47.036669
 30
0.0
  0
VERTEX
  5
6BF
  8
0
 10
189.319432
 20
52.036669
 30
0.0
  0
VERTEX
  5
6C0
  8
0
 10
102.319432
 20
52.036669
 30
0.0
  0
SEQEND
  5
6C1
  8
0
  0
POLYLINE
  5
87
  8
0
 66
     1
 10
0.0
 20
0.0
 30
0.0
 70
     1
  0
VERTEX
  5
6C2
  8
0
 10
102.319432
 20
52.036669
 30
0.0
  0
VERTEX
  5
6C3
  8
0
 10
189.319432
 20
52.036669
 30
0.0
  0
VERTEX
  5
6C4
  8
0
 10
189.319432
 20
113.036669
 30
0.0
  0
VERTEX
  5
6C5
  8
0
 10
102.319432
 20
113.036669
 30
0.0
  0
SEQEND
  5
6C6
  8
0
  0
ARC
  5
88
  8
0
 10
145.819432
 20
168.115557
 30
0.0
 40
43.5
 50
250.480655
 51
289.519345
  0
LINE
  5
89
  8
CACHE
 10
80.87841
 20
139.65598
 30
0.0
 11
88.97841
 21
139.65598
 31
0.0
  0
LINE
  5
8A
  8
CACHE
 10
74.537987
 20
133.315557
 30
0.0
 11
74.537987
 21
125.215557
 31
0.0
  0
ARC
  5
8B
  8
CACHE
 10
80.87841
 20
133.315557
 30
0.0
 40
6.340423
 50
90.0
 51
180.0
  0
CIRCLE
  5
8C
  8
0
 10
111.019432
 20
133.315557
 30
0.0
 40
2.815
  0
LINE
  5
8D
  8
AXES2
 10
111.019432
 20
141.193553
 30
0.0
 11
111.019432
 21
125.437561
 31
0.0
  0
LINE
  5
8E
  8
AXES2
 10
102.304857
 20
133.315557
 30
0.0
 11
119.734008
 21
133.315557
 31
0.0
  0
LINE
  5
8F
  8
0
 10
104.819432
 20
52.036669
 30
0.0
 11
104.819432
 21
47.036669
 31
0.0
  0
LINE
  5
90
  8
AXES2
 10
111.019432
 20
57.397185
 30
0.0
 11
111.019432
 21
43.427585
 31
0.0
  0
LINE
  5
91
  8
CACHE
 10
108.204432
 20
52.036669
 30
0.0
 11
108.204432
 21
47.036669
 31
0.0
  0
LINE
  5
92
  8
CACHE
 10
113.834432
 20
52.036669
 30
0.0
 11
113.834432
 21
47.036669
 31
0.0
  0
LINE
  5
93
  8
AXES2
 10
80.87841
 20
64.58753
 30
0.0
 11
80.87841
 21
41.520315
 31
0.0
  0
LINE
  5
94
  8
CACHE
 10
77.57841
 20
57.036669
 30
0.0
 11
77.57841
 21
47.036669
 31
0.0
  0
LINE
  5
95
  8
CACHE
 10
84.17841
 20
57.036669
 30
0.0
 11
84.17841
 21
47.036669
 31
0.0
  0
POLYLINE
  5
96
  8
0
 66
     1
 10
0.0
 20
0.0
 30
0.0
  0
VERTEX
  5
6C7
  8
0
 10
104.819432
 20
153.581115
 30
0.0
  0
VERTEX
  5
6C8
  8
0
 10
104.819432
 20
132.115557
 30
0.0
 42
0.414214
  0
VERTEX
  5
6C9
  8
0
 10
109.819432
 20
127.115557
 30
0.0
  0
VERTEX
  5
6CA
  8
0
 10
131.28499
 20
127.115557
 30
0.0
  0
SEQEND
  5
6CB
  8
0
  0
LINE
  5
97
  8
AXES2
 10
90.542985
 20
133.315557
 30
0.0
 11
71.213834
 21
133.315557
 31
0.0
  0
CIRCLE
  5
98
  8
0
 10
80.87841
 20
133.315557
 30
0.0
 40
3.3
  0
LINE
  5
99
  8
AXES2
 10
80.87841
 20
142.143553
 30
0.0
 11
80.87841
 21
124.487561
 31
0.0
  0
LINE
  5
9A
  8
0
 10
186.819432
 20
52.036669
 30
0.0
 11
186.819432
 21
47.036669
 31
0.0
  0
LINE
  5
9B
  8
CACHE
 10
177.804432
 20
52.036669
 30
0.0
 11
177.804432
 21
47.036669
 31
0.0
  0
LINE
  5
9C
  8
CACHE
 10
183.434432
 20
52.036669
 30
0.0
 11
183.434432
 21
47.036669
 31
0.0
  0
LINE
  5
9D
  8
AXES2
 10
180.619432
 20
57.397185
 30
0.0
 11
180.619432
 21
43.427585
 31
0.0
  0
POLYLINE
  5
9E
  8
0
 66
     1
 10
0.0
 20
0.0
 30
0.0
  0
VERTEX
  5
6CC
  8
0
 10
218.861289
 20
60.810534
 30
0.0
  0
VERTEX
  5
6CD
  8
0
 10
218.861276
 20
65.265325
 30
0.0
  0
VERTEX
  5
6CE
  8
0
 10
232.861004
 20
65.265216
 30
0.0
  0
VERTEX
  5
6CF
  8
0
 10
232.861051
 20
60.810627
 30
0.0
  0
SEQEND
  5
6D0
  8
0
  0
POLYLINE
  5
9F
  8
0
 66
     1
 10
0.0
 20
0.0
 30
0.0
 70
     1
  0
VERTEX
  5
6D1
  8
0
 10
222.685968
 20
45.765452
 30
0.0
  0
VERTEX
  5
6D2
  8
0
 10
229.035968
 20
45.765457
 30
0.0
  0
VERTEX
  5
6D3
  8
0
 10
228.535962
 20
45.265391
 30
0.0
  0
VERTEX
  5
6D4
  8
0
 10
223.185962
 20
45.265447
 30
0.0
  0
SEQEND
  5
6D5
  8
0
  0
POLYLINE
  5
A0
  8
0
 66
     1
 10
0.0
 20
0.0
 30
0.0
  0
VERTEX
  5
6D6
  8
0
 10
222.685987
 20
52.810521
 30
0.0
  0
VERTEX
  5
6D7
  8
0
 10
222.685968
 20
45.765452
 30
0.0
  0
VERTEX
  5
6D8
  8
0
 10
229.035968
 20
45.765435
 30
0.0
  0
VERTEX
  5
6D9
  8
0
 10
229.035894
 20
52.810587
 30
0.0
  0
SEQEND
  5
6DA
  8
0
  0
LINE
  5
A1
  8
AXES2
 10
189.334008
 20
133.315557
 30
0.0
 11
171.904857
 21
133.315557
 31
0.0
  0
CIRCLE
  5
A2
  8
0
 10
180.619432
 20
133.315557
 30
0.0
 40
2.815
  0
POLYLINE
  5
A3
  8
0
 66
     1
 10
0.0
 20
0.0
 30
0.0
  0
VERTEX
  5
6DB
  8
0
 10
160.353874
 20
127.115557
 30
0.0
  0
VERTEX
  5
6DC
  8
0
 10
181.819432
 20
127.115557
 30
0.0
 42
0.414214
  0
VERTEX
  5
6DD
  8
0
 10
186.819432
 20
132.115557
 30
0.0
  0
VERTEX
  5
6DE
  8
0
 10
186.819432
 20
153.581115
 30
0.0
  0
SEQEND
  5
6DF
  8
0
  0
LINE
  5
A4
  8
AXES2
 10
180.619432
 20
141.193553
 30
0.0
 11
180.619432
 21
125.437561
 31
0.0
  0
LINE
  5
A5
  8
CACHE
 10
245.861161
 20
75.265836
 30
0.0
 11
245.861056
 21
65.265836
 31
0.0
  0
LINE
  5
A6
  8
CACHE
 10
229.036004
 20
75.265386
 30
0.0
 11
229.036108
 21
63.310587
 31
0.0
  0
LINE
  5
A7
  8
CACHE
 10
222.685942
 20
75.265419
 30
0.0
 11
222.686108
 21
63.310521
 31
0.0
  0
LINE
  5
A8
  8
AXES2
 10
234.860974
 20
64.191984
 30
0.0
 11
234.861131
 21
51.14691
 31
0.0
  0
POLYLINE
  5
A9
  8
0
 66
     1
 10
0.0
 20
0.0
 30
0.0
 70
     1
  0
VERTEX
  5
6E0
  8
0
 10
236.861004
 20
60.810669
 30
0.0
  0
VERTEX
  5
6E1
  8
0
 10
236.861108
 20
52.810669
 30
0.0
  0
VERTEX
  5
6E2
  8
0
 10
214.861108
 20
52.81044
 30
0.0
  0
VERTEX
  5
6E3
  8
0
 10
214.861004
 20
60.81044
 30
0.0
  0
SEQEND
  5
6E4
  8
0
  0
LINE
  5
AA
  8
AXES2
 10
216.860974
 20
64.191797
 30
0.0
 11
216.861131
 21
51.146722
 31
0.0
  0
LINE
  5
AB
  8
CACHE
 10
205.861161
 20
75.266253
 30
0.0
 11
205.861056
 21
65.266253
 31
0.0
  0
POLYLINE
  5
AC
  8
CACHE
 66
     1
 10
0.0
 20
0.0
 30
0.0
  0
VERTEX
  5
6E5
  8
CACHE
 10
222.685968
 20
45.765452
 30
0.0
  0
VERTEX
  5
6E6
  8
CACHE
 10
223.185962
 20
45.265447
 30
0.0
  0
VERTEX
  5
6E7
  8
CACHE
 10
228.535962
 20
45.265391
 30
0.0
  0
VERTEX
  5
6E8
  8
CACHE
 10
229.035968
 20
45.765386
 30
0.0
  0
SEQEND
  5
6E9
  8
CACHE
  0
LINE
  5
AD
  8
CACHE
 10
222.685968
 20
45.765452
 30
0.0
 11
229.035968
 21
45.765386
 31
0.0
  0
LINE
  5
AE
  8
CACHE
 10
222.685968
 20
45.765452
 30
0.0
 11
222.686014
 21
62.810521
 31
0.0
  0
LINE
  5
AF
  8
CACHE
 10
229.035968
 20
45.765386
 30
0.0
 11
229.036014
 21
62.810587
 31
0.0
  0
LINE
  5
B0
  8
0
 10
253.861202
 20
79.265127
 30
0.0
 11
197.861202
 21
79.265711
 31
0.0
  0
LINE
  5
B1
  8
CACHE
 10
204.048702
 20
79.265646
 30
0.0
 11
204.048661
 21
75.265646
 31
0.0
  0
LINE
  5
B2
  8
CACHE
 10
200.048702
 20
79.265688
 30
0.0
 11
200.048661
 21
75.265688
 31
0.0
  0
LINE
  5
B3
  8
AXES2
 10
202.048764
 20
85.176225
 30
0.0
 11
202.04859
 21
68.470557
 31
0.0
  0
LINE
  5
B4
  8
AXES2
 10
249.673764
 20
85.175729
 30
0.0
 11
249.67359
 21
68.470061
 31
0.0
  0
LINE
  5
B5
  8
CACHE
 10
251.673702
 20
79.26515
 30
0.0
 11
251.673661
 21
75.26515
 31
0.0
  0
LINE
  5
B6
  8
CACHE
 10
247.673702
 20
79.265191
 30
0.0
 11
247.673661
 21
75.265191
 31
0.0
  0
LINE
  5
B7
  8
AXES2
 10
225.861079
 20
47.329532
 30
0.0
 11
225.861381
 21
128.371169
 31
0.0
  0
POLYLINE
  5
B8
  8
0
 66
     1
 10
0.0
 20
0.0
 30
0.0
 70
     1
  0
VERTEX
  5
6EA
  8
0
 10
197.861161
 20
75.265711
 30
0.0
  0
VERTEX
  5
6EB
  8
0
 10
197.861682
 20
125.265711
 30
0.0
  0
VERTEX
  5
6EC
  8
0
 10
253.861682
 20
125.265127
 30
0.0
  0
VERTEX
  5
6ED
  8
0
 10
253.861161
 20
75.265127
 30
0.0
  0
SEQEND
  5
6EE
  8
0
  0
LINE
  5
B9
  8
AXES2
 10
205.588385
 20
144.302805
 30
0.0
 11
198.508915
 21
144.302805
 31
0.0
  0
LINE
  5
BA
  8
AXES2
 10
202.04865
 20
147.703112
 30
0.0
 11
202.04865
 21
140.902497
 31
0.0
  0
CIRCLE
  5
BB
  8
0
 10
202.04865
 20
144.302805
 30
0.0
 40
2.0
  0
LINE
  5
BC
  8
AXES2
 10
249.674155
 20
147.703112
 30
0.0
 11
249.674155
 21
140.902497
 31
0.0
  0
CIRCLE
  5
BD
  8
0
 10
249.674155
 20
144.302805
 30
0.0
 40
2.0
  0
LINE
  5
BE
  8
AXES2
 10
246.13442
 20
144.302805
 30
0.0
 11
253.21389
 21
144.302805
 31
0.0
  0
LINE
  5
BF
  8
AXES2
 10
195.076247
 20
168.115557
 30
0.0
 11
96.562617
 21
168.115557
 31
0.0
  0
ARC
  5
C0
  8
0
 10
145.819432
 20
168.115557
 30
0.0
 40
43.5
 50
70.480655
 51
109.519345
  0
CIRCLE
  5
C1
  8
0
 10
80.87841
 20
202.915557
 30
0.0
 40
3.3
  0
LINE
  5
C2
  8
AXES2
 10
80.87841
 20
194.087561
 30
0.0
 11
80.87841
 21
211.743553
 31
0.0
  0
LINE
  5
C3
  8
AXES2
 10
90.542985
 20
202.915557
 30
0.0
 11
71.213834
 21
202.915557
 31
0.0
  0
ARC
  5
C4
  8
CACHE
 10
80.87841
 20
202.915557
 30
0.0
 40
6.340423
 50
180.0
 51
270.0
  0
LINE
  5
C5
  8
CACHE
 10
74.537987
 20
202.915557
 30
0.0
 11
74.537987
 21
211.015557
 31
0.0
  0
LINE
  5
C6
  8
CACHE
 10
80.87841
 20
196.575135
 30
0.0
 11
88.97841
 21
196.575135
 31
0.0
  0
LINE
  5
C7
  8
AXES2
 10
102.304857
 20
202.915557
 30
0.0
 11
119.734008
 21
202.915557
 31
0.0
  0
LINE
  5
C8
  8
AXES2
 10
111.019432
 20
195.037561
 30
0.0
 11
111.019432
 21
210.793553
 31
0.0
  0
CIRCLE
  5
C9
  8
0
 10
111.019432
 20
202.915557
 30
0.0
 40
2.815
  0
POLYLINE
  5
CA
  8
0
 66
     1
 10
0.0
 20
0.0
 30
0.0
  0
VERTEX
  5
6EF
  8
0
 10
131.28499
 20
209.115557
 30
0.0
  0
VERTEX
  5
6F0
  8
0
 10
109.819432
 20
209.115557
 30
0.0
 42
0.414214
  0
VERTEX
  5
6F1
  8
0
 10
104.819432
 20
204.115557
 30
0.0
  0
VERTEX
  5
6F2
  8
0
 10
104.819432
 20
182.649999
 30
0.0
  0
SEQEND
  5
6F3
  8
0
  0
POLYLINE
  5
CB
  8
0
 66
     1
 10
0.0
 20
0.0
 30
0.0
  0
VERTEX
  5
6F4
  8
0
 10
45.252085
 20
211.015557
 30
0.0
  0
VERTEX
  5
6F5
  8
0
 10
83.97841
 20
211.015557
 30
0.0
 42
-0.414214
  0
VERTEX
  5
6F6
  8
0
 10
88.97841
 20
206.015557
 30
0.0
  0
VERTEX
  5
6F7
  8
0
 10
88.97841
 20
168.639184
 30
0.0
  0
SEQEND
  5
6F8
  8
0
  0
CIRCLE
  5
CC
  8
0
 10
180.619432
 20
202.915557
 30
0.0
 40
2.815
  0
LINE
  5
CD
  8
AXES2
 10
180.619432
 20
195.037561
 30
0.0
 11
180.619432
 21
210.793553
 31
0.0
  0
LINE
  5
CE
  8
AXES2
 10
189.334008
 20
202.915557
 30
0.0
 11
171.904857
 21
202.915557
 31
0.0
  0
POLYLINE
  5
CF
  8
0
 66
     1
 10
0.0
 20
0.0
 30
0.0
  0
VERTEX
  5
6F9
  8
0
 10
186.819432
 20
182.649999
 30
0.0
  0
VERTEX
  5
6FA
  8
0
 10
186.819432
 20
204.115557
 30
0.0
 42
0.414214
  0
VERTEX
  5
6FB
  8
0
 10
181.819432
 20
209.115557
 30
0.0
  0
VERTEX
  5
6FC
  8
0
 10
160.353874
 20
209.115557
 30
0.0
  0
SEQEND
  5
6FD
  8
0
  0
LINE
  5
D0
  8
AXES2
 10
246.13442
 20
191.92831
 30
0.0
 11
253.21389
 21
191.92831
 31
0.0
  0
LINE
  5
D1
  8
AXES2
 10
249.674155
 20
188.528002
 30
0.0
 11
249.674155
 21
195.328617
 31
0.0
  0
CIRCLE
  5
D2
  8
0
 10
249.674155
 20
191.92831
 30
0.0
 40
2.0
  0
LINE
  5
D3
  8
AXES2
 10
202.04865
 20
188.528002
 30
0.0
 11
202.04865
 21
195.328617
 31
0.0
  0
LINE
  5
D4
  8
AXES2
 10
256.646558
 20
168.115557
 30
0.0
 11
195.076247
 21
168.115557
 31
0.0
  0
CIRCLE
  5
D5
  8
0
 10
202.04865
 20
191.92831
 30
0.0
 40
2.0
  0
LINE
  5
D6
  8
AXES2
 10
205.588385
 20
191.92831
 30
0.0
 11
198.508915
 21
191.92831
 31
0.0
  0
LINE
  5
D7
  8
AXES2
 10
46.07841
 20
115.036669
 30
0.0
 11
46.07841
 21
3.350999
 31
0.0
  0
LINE
  5
D8
  8
0
 10
270.697474
 20
18.240986
 30
0.0
 11
270.697474
 21
9.752986
 31
0.0
  0
ARC
  5
D9
  8
0
 10
265.947474
 20
24.297274
 30
0.0
 40
15.300289
 50
251.913548
 51
288.086452
  0
ARC
  5
DA
  8
0
 10
265.947474
 20
3.696697
 30
0.0
 40
15.300289
 50
71.913548
 51
108.086452
  0
LINE
  5
DB
  8
0
 10
244.697459
 20
8.240986
 30
0.0
 11
244.697459
 21
1.752986
 31
0.0
  0
LINE
  5
DC
  8
0
 10
231.947481
 20
0.996986
 30
0.0
 11
240.447466
 21
0.996986
 31
0.0
  0
ARC
  5
DD
  8
0
 10
231.947481
 20
13.321041
 30
0.0
 40
12.324056
 50
249.827153
 51
290.172847
  0
ARC
  5
DE
  8
0
 10
240.447466
 20
13.321041
 30
0.0
 40
12.324056
 50
249.827153
 51
290.172847
  0
LINE
  5
DF
  8
0
 10
236.197474
 20
8.240986
 30
0.0
 11
236.197474
 21
1.752986
 31
0.0
  0
LINE
  5
E0
  8
0
 10
227.697489
 20
8.240986
 30
0.0
 11
227.697489
 21
1.752986
 31
0.0
  0
LINE
  5
E1
  8
0
 10
217.490046
 20
-0.000002
 30
0.0
 11
210.990046
 21
-0.000002
 31
0.0
  0
LINE
  5
E2
  8
0
 10
220.740046
 20
5.937496
 30
0.0
 11
220.740046
 21
0.562498
 31
0.0
  0
ARC
  5
E3
  8
0
 10
217.490046
 20
9.670137
 30
0.0
 40
9.670139
 50
250.361399
 51
289.638601
  0
LINE
  5
E4
  8
0
 10
207.740046
 20
5.937496
 30
0.0
 11
207.740046
 21
0.562498
 31
0.0
  0
ARC
  5
E5
  8
0
 10
210.990046
 20
9.670137
 30
0.0
 40
9.670139
 50
250.361399
 51
289.638601
  0
LINE
  5
E6
  8
0
 10
214.240046
 20
5.937496
 30
0.0
 11
214.240046
 21
0.562498
 31
0.0
  0
ENDBLK
  5
E8
  8
0
  0
BLOCK
  8
0
  2
*D1
 70
     1
 10
0.0
 20
0.0
 30
0.0
  3
*D1
  1

  0
LINE
  5
5B0
  8
0
  6
BYBLOCK
 62
     0
 10
195.23
 20
30.175
 30
0.0
 11
195.23
 21
24.125691
 31
0.0
  0
LINE
  5
5B1
  8
0
  6
BYBLOCK
 62
     0
 10
204.77
 20
30.175
 30
0.0
 11
204.77
 21
24.125691
 31
0.0
  0
LINE
  5
5B2
  8
0
  6
BYBLOCK
 62
     0
 10
197.73
 20
25.375691
 30
0.0
 11
202.27
 21
25.375691
 31
0.0
  0
LINE
  5
5B3
  8
0
  6
BYBLOCK
 62
     0
 10
204.77
 20
25.375691
 30
0.0
 11
217.87
 21
25.375691
 31
0.0
  0
SOLID
  5
5B4
  8
0
  6
BYBLOCK
 62
     0
 10
197.73
 20
25.792357
 30
0.0
 11
197.73
 21
24.959024
 31
0.0
 12
195.23
 22
25.375691
 32
0.0
 13
195.23
 23
25.375691
 33
0.0
  0
SOLID
  5
5B5
  8
0
  6
BYBLOCK
 62
     0
 10
202.27
 20
25.792357
 30
0.0
 11
202.27
 21
24.959024
 31
0.0
 12
204.77
 22
25.375691
 32
0.0
 13
204.77
 23
25.375691
 33
0.0
  0
TEXT
  8
0
  40
3
  5
789
  62
0
  72
0
  71
0
 10
206.570
 20
22.3657
 30
0.000000
  1
9.54
  0
POINT
  5
5B7
  8
DEFPOINTS
  6
BYBLOCK
 62
     0
 10
195.23
 20
30.8
 30
0.0
  0
POINT
  5
5B8
  8
DEFPOINTS
  6
BYBLOCK
 62
     0
 10
204.77
 20
30.8
 30
0.0
  0
POINT
  5
5B9
  8
DEFPOINTS
  6
BYBLOCK
 62
     0
 10
204.77
 20
25.375691
 30
0.0
  0
ENDBLK
  5
5BA
  8
0
  0
BLOCK
  8
0
  2
*D2
 70
     1
 10
0.0
 20
0.0
 30
0.0
  3
*D2
  1

  0
LINE
  5
5BC
  8
0
  6
BYBLOCK
 62
     0
 10
163.5
 20
58.375
 30
0.0
 11
163.5
 21
17.937786
 31
0.0
  0
LINE
  5
5BD
  8
0
  6
BYBLOCK
 62
     0
 10
236.5
 20
58.375
 30
0.0
 11
236.5
 21
17.937786
 31
0.0
  0
LINE
  5
5BE
  8
0
  6
BYBLOCK
 62
     0
 10
166.0
 20
19.187786
 30
0.0
 11
234.0
 21
19.187786
 31
0.0
  0
SOLID
  5
5BF
  8
0
  6
BYBLOCK
 62
     0
 10
166.0
 20
19.604452
 30
0.0
 11
166.0
 21
18.771119
 31
0.0
 12
163.5
 22
19.187786
 32
0.0
 13
163.5
 23
19.187786
 33
0.0
  0
SOLID
  5
5C0
  8
0
  6
BYBLOCK
 62
     0
 10
234.0
 20
19.604452
 30
0.0
 11
234.0
 21
18.771119
 31
0.0
 12
236.5
 22
19.187786
 32
0.0
 13
236.5
 23
19.187786
 33
0.0
  0
TEXT
  8
0
  40
3
  5
78A
  62
0
  72
0
  71
0
 10
194.000
 20
16.1778
 30
0.000000
  1
73
  0
POINT
  5
5C2
  8
DEFPOINTS
  6
BYBLOCK
 62
     0
 10
163.5
 20
59.0
 30
0.0
  0
POINT
  5
5C3
  8
DEFPOINTS
  6
BYBLOCK
 62
     0
 10
236.5
 20
59.0
 30
0.0
  0
POINT
  5
5C4
  8
DEFPOINTS
  6
BYBLOCK
 62
     0
 10
236.5
 20
19.187786
 30
0.0
  0
ENDBLK
  5
5C5
  8
0
  0
BLOCK
  8
0
  2
*D3
 70
     1
 10
0.0
 20
0.0
 30
0.0
  3
*D3
  1

  0
LINE
  5
5D2
  8
0
  6
BYBLOCK
 62
     0
 10
165.2
 20
221.625
 30
0.0
 11
165.2
 21
229.050639
 31
0.0
  0
LINE
  5
5D3
  8
0
  6
BYBLOCK
 62
     0
 10
234.8
 20
221.625
 30
0.0
 11
234.8
 21
229.050639
 31
0.0
  0
LINE
  5
5D4
  8
0
  6
BYBLOCK
 62
     0
 10
167.7
 20
227.800639
 30
0.0
 11
232.3
 21
227.800639
 31
0.0
  0
SOLID
  5
5D5
  8
0
  6
BYBLOCK
 62
     0
 10
167.7
 20
228.217306
 30
0.0
 11
167.7
 21
227.383973
 31
0.0
 12
165.2
 22
227.800639
 32
0.0
 13
165.2
 23
227.800639
 33
0.0
  0
SOLID
  5
5D6
  8
0
  6
BYBLOCK
 62
     0
 10
232.3
 20
228.217306
 30
0.0
 11
232.3
 21
227.383973
 31
0.0
 12
234.8
 22
227.800639
 32
0.0
 13
234.8
 23
227.800639
 33
0.0
  0
TEXT
  8
0
  40
3
  5
78B
  62
0
  72
0
  71
0
 10
194.000
 20
224.791
 30
0.000000
  1
69.6
  0
POINT
  5
5D8
  8
DEFPOINTS
  6
BYBLOCK
 62
     0
 10
165.2
 20
221.0
 30
0.0
  0
POINT
  5
5D9
  8
DEFPOINTS
  6
BYBLOCK
 62
     0
 10
234.8
 20
221.0
 30
0.0
  0
POINT
  5
5DA
  8
DEFPOINTS
  6
BYBLOCK
 62
     0
 10
234.8
 20
227.800639
 30
0.0
  0
ENDBLK
  5
5DB
  8
0
  0
BLOCK
  8
0
  2
*D4
 70
     1
 10
0.0
 20
0.0
 30
0.0
  3
*D4
  1

  0
LINE
  5
653
  8
0
  6
BYBLOCK
 62
     0
 10
256.187247
 20
207.83806
 30
0.0
 11
256.187247
 21
218.660769
 31
0.0
  0
LINE
  5
654
  8
0
  6
BYBLOCK
 62
     0
 10
303.812752
 20
207.83806
 30
0.0
 11
303.812752
 21
218.660769
 31
0.0
  0
LINE
  5
655
  8
0
  6
BYBLOCK
 62
     0
 10
258.687247
 20
217.410769
 30
0.0
 11
301.312752
 21
217.410769
 31
0.0
  0
SOLID
  5
656
  8
0
  6
BYBLOCK
 62
     0
 10
258.687247
 20
217.827436
 30
0.0
 11
258.687247
 21
216.994103
 31
0.0
 12
256.187247
 22
217.410769
 32
0.0
 13
256.187247
 23
217.410769
 33
0.0
  0
SOLID
  5
657
  8
0
  6
BYBLOCK
 62
     0
 10
301.312752
 20
217.827436
 30
0.0
 11
301.312752
 21
216.994103
 31
0.0
 12
303.812752
 22
217.410769
 32
0.0
 13
303.812752
 23
217.410769
 33
0.0
  0
TEXT
  8
0
  40
3
  5
78C
  62
0
  72
0
  71
0
 10
274.000
 20
214.401
 30
0.000000
  1
47.63
  0
POINT
  5
659
  8
DEFPOINTS
  6
BYBLOCK
 62
     0
 10
256.187247
 20
207.21306
 30
0.0
  0
POINT
  5
65A
  8
DEFPOINTS
  6
BYBLOCK
 62
     0
 10
303.812752
 20
207.21306
 30
0.0
  0
POINT
  5
65B
  8
DEFPOINTS
  6
BYBLOCK
 62
     0
 10
303.812752
 20
217.410769
 30
0.0
  0
ENDBLK
  5
65C
  8
0
  0
BLOCK
  8
0
  2
*D5
 70
     1
 10
0.0
 20
0.0
 30
0.0
  3
*D5
  1

  0
LINE
  5
63B
  8
0
  6
BYBLOCK
 62
     0
 10
276.824785
 20
59.875033
 30
0.0
 11
276.824785
 21
54.892017
 31
0.0
  0
LINE
  5
63C
  8
0
  6
BYBLOCK
 62
     0
 10
283.174785
 20
59.874967
 30
0.0
 11
283.174785
 21
54.892017
 31
0.0
  0
LINE
  5
63D
  8
0
  6
BYBLOCK
 62
     0
 10
274.324785
 20
56.142017
 30
0.0
 11
271.824785
 21
56.142017
 31
0.0
  0
LINE
  5
63E
  8
0
  6
BYBLOCK
 62
     0
 10
285.674785
 20
56.142017
 30
0.0
 11
298.774785
 21
56.142017
 31
0.0
  0
LINE
  5
63F
  8
0
  6
BYBLOCK
 62
     0
 10
276.824785
 20
56.142017
 30
0.0
 11
283.174785
 21
56.142017
 31
0.0
  0
SOLID
  5
640
  8
0
  6
BYBLOCK
 62
     0
 10
274.324785
 20
56.558684
 30
0.0
 11
274.324785
 21
55.72535
 31
0.0
 12
276.824785
 22
56.142017
 32
0.0
 13
276.824785
 23
56.142017
 33
0.0
  0
SOLID
  5
641
  8
0
  6
BYBLOCK
 62
     0
 10
285.674785
 20
56.558684
 30
0.0
 11
285.674785
 21
55.72535
 31
0.0
 12
283.174785
 22
56.142017
 32
0.0
 13
283.174785
 23
56.142017
 33
0.0
  0
TEXT
  8
0
  40
3
  5
78D
  62
0
  72
0
  71
0
 10
287.475
 20
53.1320
 30
0.000000
  1
6.35
  0
POINT
  5
643
  8
DEFPOINTS
  6
BYBLOCK
 62
     0
 10
276.824785
 20
60.500033
 30
0.0
  0
POINT
  5
644
  8
DEFPOINTS
  6
BYBLOCK
 62
     0
 10
283.174785
 20
60.499967
 30
0.0
  0
POINT
  5
645
  8
DEFPOINTS
  6
BYBLOCK
 62
     0
 10
283.174785
 20
56.142017
 30
0.0
  0
ENDBLK
  5
646
  8
0
  0
BLOCK
  8
0
  2
*D6
 70
     1
 10
0.0
 20
0.0
 30
0.0
  3
*D6
  1

  0
LINE
  5
648
  8
0
  6
BYBLOCK
 62
     0
 10
260.95
 20
87.875209
 30
0.0
 11
260.95
 21
48.254328
 31
0.0
  0
LINE
  5
649
  8
0
  6
BYBLOCK
 62
     0
 10
299.05
 20
87.875209
 30
0.0
 11
299.05
 21
48.254328
 31
0.0
  0
LINE
  5
64A
  8
0
  6
BYBLOCK
 62
     0
 10
263.45
 20
49.504328
 30
0.0
 11
296.55
 21
49.504328
 31
0.0
  0
SOLID
  5
64B
  8
0
  6
BYBLOCK
 62
     0
 10
263.45
 20
49.920994
 30
0.0
 11
263.45
 21
49.087661
 31
0.0
 12
260.95
 22
49.504328
 32
0.0
 13
260.95
 23
49.504328
 33
0.0
  0
SOLID
  5
64C
  8
0
  6
BYBLOCK
 62
     0
 10
296.55
 20
49.920994
 30
0.0
 11
296.55
 21
49.087661
 31
0.0
 12
299.05
 22
49.504328
 32
0.0
 13
299.05
 23
49.504328
 33
0.0
  0
TEXT
  8
0
  40
3
  5
78E
  62
0
  72
0
  71
0
 10
274.000
 20
46.4943
 30
0.000000
  1
38.1
  0
POINT
  5
64E
  8
DEFPOINTS
  6
BYBLOCK
 62
     0
 10
260.95
 20
88.500209
 30
0.0
  0
POINT
  5
64F
  8
DEFPOINTS
  6
BYBLOCK
 62
     0
 10
299.05
 20
88.500209
 30
0.0
  0
POINT
  5
650
  8
DEFPOINTS
  6
BYBLOCK
 62
     0
 10
299.05
 20
49.504328
 30
0.0
  0
ENDBLK
  5
651
  8
0
  0
BLOCK
  8
0
  2
*D7
 70
     1
 10
0.0
 20
0.0
 30
0.0
  3
*D7
  1

  0
LINE
  5
618
  8
0
  6
BYBLOCK
 62
     0
 10
65.2
 20
223.525
 30
0.0
 11
65.2
 21
228.667802
 31
0.0
  0
LINE
  5
619
  8
0
  6
BYBLOCK
 62
     0
 10
134.8
 20
223.525
 30
0.0
 11
134.8
 21
228.667802
 31
0.0
  0
LINE
  5
61A
  8
0
  6
BYBLOCK
 62
     0
 10
67.7
 20
227.417802
 30
0.0
 11
132.3
 21
227.417802
 31
0.0
  0
SOLID
  5
61B
  8
0
  6
BYBLOCK
 62
     0
 10
67.7
 20
227.834469
 30
0.0
 11
67.7
 21
227.001136
 31
0.0
 12
65.2
 22
227.417802
 32
0.0
 13
65.2
 23
227.417802
 33
0.0
  0
SOLID
  5
61C
  8
0
  6
BYBLOCK
 62
     0
 10
132.3
 20
227.834469
 30
0.0
 11
132.3
 21
227.001136
 31
0.0
 12
134.8
 22
227.417802
 32
0.0
 13
134.8
 23
227.417802
 33
0.0
  0
TEXT
  8
0
  40
3
  5
78F
  62
0
  72
0
  71
0
 10
94.0000
 20
224.408
 30
0.000000
  1
69.6
  0
POINT
  5
61E
  8
DEFPOINTS
  6
BYBLOCK
 62
     0
 10
65.2
 20
222.9
 30
0.0
  0
POINT
  5
61F
  8
DEFPOINTS
  6
BYBLOCK
 62
     0
 10
134.8
 20
222.9
 30
0.0
  0
POINT
  5
620
  8
DEFPOINTS
  6
BYBLOCK
 62
     0
 10
134.8
 20
227.417802
 30
0.0
  0
ENDBLK
  5
621
  8
0
  0
BLOCK
  8
0
  2
*D8
 70
     1
 10
0.0
 20
0.0
 30
0.0
  3
*D8
  1

  0
LINE
  5
5DD
  8
0
  6
BYBLOCK
 62
     0
 10
231.985
 20
144.575
 30
0.0
 11
231.985
 21
132.369027
 31
0.0
  0
LINE
  5
5DE
  8
0
  6
BYBLOCK
 62
     0
 10
237.615
 20
144.575
 30
0.0
 11
237.615
 21
132.369027
 31
0.0
  0
LINE
  5
5DF
  8
0
  6
BYBLOCK
 62
     0
 10
240.115
 20
133.619027
 30
0.0
 11
242.615
 21
133.619027
 31
0.0
  0
LINE
  5
5E0
  8
0
  6
BYBLOCK
 62
     0
 10
229.485
 20
133.619027
 30
0.0
 11
216.385
 21
133.619027
 31
0.0
  0
LINE
  5
5E1
  8
0
  6
BYBLOCK
 62
     0
 10
237.615
 20
133.619027
 30
0.0
 11
231.985
 21
133.619027
 31
0.0
  0
SOLID
  5
5E2
  8
0
  6
BYBLOCK
 62
     0
 10
240.115
 20
134.035694
 30
0.0
 11
240.115
 21
133.202361
 31
0.0
 12
237.615
 22
133.619027
 32
0.0
 13
237.615
 23
133.619027
 33
0.0
  0
SOLID
  5
5E3
  8
0
  6
BYBLOCK
 62
     0
 10
229.485
 20
134.035694
 30
0.0
 11
229.485
 21
133.202361
 31
0.0
 12
231.985
 22
133.619027
 32
0.0
 13
231.985
 23
133.619027
 33
0.0
  0
TEXT
  8
0
  40
3
  5
790
  62
0
  72
0
  71
0
 10
215.685
 20
130.609
 30
0.000000
  1
5.63
  0
POINT
  5
5E5
  8
DEFPOINTS
  6
BYBLOCK
 62
     0
 10
231.985
 20
145.2
 30
0.0
  0
POINT
  5
5E6
  8
DEFPOINTS
  6
BYBLOCK
 62
     0
 10
237.615
 20
145.2
 30
0.0
  0
POINT
  5
5E7
  8
DEFPOINTS
  6
BYBLOCK
 62
     0
 10
237.615
 20
133.619027
 30
0.0
  0
ENDBLK
  5
5E8
  8
0
  0
BLOCK
  8
0
  2
*D9
 70
     1
 10
0.0
 20
0.0
 30
0.0
  3
*D9
  1

  0
LINE
  5
62E
  8
0
  6
BYBLOCK
 62
     0
 10
254.187247
 20
155.562248
 30
0.0
 11
254.187247
 21
144.107968
 31
0.0
  0
LINE
  5
62F
  8
0
  6
BYBLOCK
 62
     0
 10
258.187247
 20
155.562248
 30
0.0
 11
258.187247
 21
144.107968
 31
0.0
  0
LINE
  5
630
  8
0
  6
BYBLOCK
 62
     0
 10
251.687247
 20
145.357968
 30
0.0
 11
249.187247
 21
145.357968
 31
0.0
  0
LINE
  5
631
  8
0
  6
BYBLOCK
 62
     0
 10
260.687247
 20
145.357968
 30
0.0
 11
263.187247
 21
145.357968
 31
0.0
  0
LINE
  5
632
  8
0
  6
BYBLOCK
 62
     0
 10
254.187247
 20
145.357968
 30
0.0
 11
258.187247
 21
145.357968
 31
0.0
  0
SOLID
  5
633
  8
0
  6
BYBLOCK
 62
     0
 10
251.687247
 20
145.774635
 30
0.0
 11
251.687247
 21
144.941301
 31
0.0
 12
254.187247
 22
145.357968
 32
0.0
 13
254.187247
 23
145.357968
 33
0.0
  0
SOLID
  5
634
  8
0
  6
BYBLOCK
 62
     0
 10
260.687247
 20
145.774635
 30
0.0
 11
260.687247
 21
144.941301
 31
0.0
 12
258.187247
 22
145.357968
 32
0.0
 13
258.187247
 23
145.357968
 33
0.0
  0
TEXT
  8
0
  40
3
  5
791
  62
0
  72
0
  71
0
 10
250.187
 20
142.348
 30
0.000000
  1
4
  0
POINT
  5
636
  8
DEFPOINTS
  6
BYBLOCK
 62
     0
 10
254.187247
 20
156.187248
 30
0.0
  0
POINT
  5
637
  8
DEFPOINTS
  6
BYBLOCK
 62
     0
 10
258.187247
 20
156.187248
 30
0.0
  0
POINT
  5
638
  8
DEFPOINTS
  6
BYBLOCK
 62
     0
 10
258.187247
 20
145.357968
 30
0.0
  0
ENDBLK
  5
639
  8
0
  0
BLOCK
  8
0
  2
*D10
 70
     1
 10
0.0
 20
0.0
 30
0.0
  3
*D10
  1

  0
LINE
  5
60C
  8
0
  6
BYBLOCK
 62
     0
 10
131.5
 20
144.575
 30
0.0
 11
131.5
 21
130.380089
 31
0.0
  0
LINE
  5
60D
  8
0
  6
BYBLOCK
 62
     0
 10
138.1
 20
144.575
 30
0.0
 11
138.1
 21
130.380089
 31
0.0
  0
LINE
  5
60E
  8
0
  6
BYBLOCK
 62
     0
 10
135.6
 20
131.630089
 30
0.0
 11
134.0
 21
131.630089
 31
0.0
  0
LINE
  5
60F
  8
0
  6
BYBLOCK
 62
     0
 10
131.5
 20
131.630089
 30
0.0
 11
119.574566
 21
131.630089
 31
0.0
  0
SOLID
  5
610
  8
0
  6
BYBLOCK
 62
     0
 10
135.6
 20
132.046756
 30
0.0
 11
135.6
 21
131.213423
 31
0.0
 12
138.1
 22
131.630089
 32
0.0
 13
138.1
 23
131.630089
 33
0.0
  0
SOLID
  5
611
  8
0
  6
BYBLOCK
 62
     0
 10
134.0
 20
132.046756
 30
0.0
 11
134.0
 21
131.213423
 31
0.0
 12
131.5
 22
131.630089
 32
0.0
 13
131.5
 23
131.630089
 33
0.0
  0
TEXT
  8
0
  40
3
  5
792
  62
0
  72
0
  71
0
 10
117.375
 20
128.620
 30
0.000000
  1
6.6
  0
POINT
  5
613
  8
DEFPOINTS
  6
BYBLOCK
 62
     0
 10
131.5
 20
145.2
 30
0.0
  0
POINT
  5
614
  8
DEFPOINTS
  6
BYBLOCK
 62
     0
 10
138.1
 20
145.2
 30
0.0
  0
POINT
  5
615
  8
DEFPOINTS
  6
BYBLOCK
 62
     0
 10
138.1
 20
131.630089
 30
0.0
  0
ENDBLK
  5
616
  8
0
  0
BLOCK
  8
0
  2
*D11
 70
     1
 10
0.0
 20
0.0
 30
0.0
  3
*D11
  1

  0
LINE
  5
600
  8
0
  6
BYBLOCK
 62
     0
 10
93.0
 20
23.175
 30
0.0
 11
93.0
 21
17.676934
 31
0.0
  0
LINE
  5
601
  8
0
  6
BYBLOCK
 62
     0
 10
107.0
 20
23.175
 30
0.0
 11
107.0
 21
17.676934
 31
0.0
  0
LINE
  5
602
  8
0
  6
BYBLOCK
 62
     0
 10
95.5
 20
18.926934
 30
0.0
 11
104.5
 21
18.926934
 31
0.0
  0
LINE
  5
603
  8
0
  6
BYBLOCK
 62
     0
 10
107.0
 20
18.926934
 30
0.0
 11
116.262497
 21
18.926934
 31
0.0
  0
SOLID
  5
604
  8
0
  6
BYBLOCK
 62
     0
 10
95.5
 20
19.3436
 30
0.0
 11
95.5
 21
18.510267
 31
0.0
 12
93.0
 22
18.926934
 32
0.0
 13
93.0
 23
18.926934
 33
0.0
  0
SOLID
  5
605
  8
0
  6
BYBLOCK
 62
     0
 10
104.5
 20
19.3436
 30
0.0
 11
104.5
 21
18.510267
 31
0.0
 12
107.0
 22
18.926934
 32
0.0
 13
107.0
 23
18.926934
 33
0.0
  0
TEXT
  8
0
  40
3
  5
793
  62
0
  72
0
  71
0
 10
107.462
 20
15.9169
 30
0.000000
  1
14
  0
POINT
  5
607
  8
DEFPOINTS
  6
BYBLOCK
 62
     0
 10
93.0
 20
23.8
 30
0.0
  0
POINT
  5
608
  8
DEFPOINTS
  6
BYBLOCK
 62
     0
 10
107.0
 20
23.8
 30
0.0
  0
POINT
  5
609
  8
DEFPOINTS
  6
BYBLOCK
 62
     0
 10
107.0
 20
18.926934
 30
0.0
  0
ENDBLK
  5
60A
  8
0
  0
BLOCK
  8
0
  2
*D12
 70
     1
 10
0.0
 20
0.0
 30
0.0
  3
*D12
  1

  0
LINE
  5
5EA
  8
0
  6
BYBLOCK
 62
     0
 10
63.5
 20
58.375
 30
0.0
 11
63.5
 21
11.582325
 31
0.0
  0
LINE
  5
5EB
  8
0
  6
BYBLOCK
 62
     0
 10
136.5
 20
58.375
 30
0.0
 11
136.5
 21
11.582325
 31
0.0
  0
LINE
  5
5EC
  8
0
  6
BYBLOCK
 62
     0
 10
66.0
 20
12.832325
 30
0.0
 11
134.0
 21
12.832325
 31
0.0
  0
SOLID
  5
5ED
  8
0
  6
BYBLOCK
 62
     0
 10
66.0
 20
13.248991
 30
0.0
 11
66.0
 21
12.415658
 31
0.0
 12
63.5
 22
12.832325
 32
0.0
 13
63.5
 23
12.832325
 33
0.0
  0
SOLID
  5
5EE
  8
0
  6
BYBLOCK
 62
     0
 10
134.0
 20
13.248991
 30
0.0
 11
134.0
 21
12.415658
 31
0.0
 12
136.5
 22
12.832325
 32
0.0
 13
136.5
 23
12.832325
 33
0.0
  0
TEXT
  8
0
  40
3
  5
794
  62
0
  72
0
  71
0
 10
94.0000
 20
9.82232
 30
0.000000
  1
73
  0
POINT
  5
5F0
  8
DEFPOINTS
  6
BYBLOCK
 62
     0
 10
63.5
 20
59.0
 30
0.0
  0
POINT
  5
5F1
  8
DEFPOINTS
  6
BYBLOCK
 62
     0
 10
136.5
 20
59.0
 30
0.0
  0
POINT
  5
5F2
  8
DEFPOINTS
  6
BYBLOCK
 62
     0
 10
136.5
 20
12.832325
 30
0.0
  0
ENDBLK
  5
5F3
  8
0
  0
BLOCK
  8
0
  2
*D13
 70
     1
 10
0.0
 20
0.0
 30
0.0
  3
*D13
  1

  0
LINE
  5
623
  8
0
  6
BYBLOCK
 62
     0
 10
57.1
 20
215.425
 30
0.0
 11
57.1
 21
234.369251
 31
0.0
  0
LINE
  5
624
  8
0
  6
BYBLOCK
 62
     0
 10
142.9
 20
215.425
 30
0.0
 11
142.9
 21
234.369251
 31
0.0
  0
LINE
  5
625
  8
0
  6
BYBLOCK
 62
     0
 10
59.6
 20
233.119251
 30
0.0
 11
140.4
 21
233.119251
 31
0.0
  0
SOLID
  5
626
  8
0
  6
BYBLOCK
 62
     0
 10
59.6
 20
233.535917
 30
0.0
 11
59.6
 21
232.702584
 31
0.0
 12
57.1
 22
233.119251
 32
0.0
 13
57.1
 23
233.119251
 33
0.0
  0
SOLID
  5
627
  8
0
  6
BYBLOCK
 62
     0
 10
140.4
 20
233.535917
 30
0.0
 11
140.4
 21
232.702584
 31
0.0
 12
142.9
 22
233.119251
 32
0.0
 13
142.9
 23
233.119251
 33
0.0
  0
TEXT
  8
0
  40
3
  5
795
  62
0
  72
0
  71
0
 10
94.0000
 20
230.109
 30
0.000000
  1
85.8
  0
POINT
  5
629
  8
DEFPOINTS
  6
BYBLOCK
 62
     0
 10
57.1
 20
214.8
 30
0.0
  0
POINT
  5
62A
  8
DEFPOINTS
  6
BYBLOCK
 62
     0
 10
142.9
 20
214.8
 30
0.0
  0
POINT
  5
62B
  8
DEFPOINTS
  6
BYBLOCK
 62
     0
 10
142.9
 20
233.119251
 30
0.0
  0
ENDBLK
  5
62C
  8
0
  0
BLOCK
  8
0
  2
*D14
 70
     1
 10
0.0
 20
0.0
 30
0.0
  3
*D14
  1

  0
LINE
  5
5C7
  8
0
  6
BYBLOCK
 62
     0
 10
156.5
 20
180.625
 30
0.0
 11
156.5
 21
234.636918
 31
0.0
  0
LINE
  5
5C8
  8
0
  6
BYBLOCK
 62
     0
 10
243.5
 20
180.625
 30
0.0
 11
243.5
 21
234.636918
 31
0.0
  0
LINE
  5
5C9
  8
0
  6
BYBLOCK
 62
     0
 10
159.0
 20
233.386918
 30
0.0
 11
241.0
 21
233.386918
 31
0.0
  0
SOLID
  5
5CA
  8
0
  6
BYBLOCK
 62
     0
 10
159.0
 20
233.803585
 30
0.0
 11
159.0
 21
232.970251
 31
0.0
 12
156.5
 22
233.386918
 32
0.0
 13
156.5
 23
233.386918
 33
0.0
  0
SOLID
  5
5CB
  8
0
  6
BYBLOCK
 62
     0
 10
241.0
 20
233.803585
 30
0.0
 11
241.0
 21
232.970251
 31
0.0
 12
243.5
 22
233.386918
 32
0.0
 13
243.5
 23
233.386918
 33
0.0
  0
TEXT
  8
0
  40
3
  5
796
  62
0
  72
0
  71
0
 10
194.000
 20
230.377
 30
0.000000
  1
87
  0
POINT
  5
5CD
  8
DEFPOINTS
  6
BYBLOCK
 62
     0
 10
156.5
 20
180.0
 30
0.0
  0
POINT
  5
5CE
  8
DEFPOINTS
  6
BYBLOCK
 62
     0
 10
243.5
 20
180.0
 30
0.0
  0
POINT
  5
5CF
  8
DEFPOINTS
  6
BYBLOCK
 62
     0
 10
243.5
 20
233.386918
 30
0.0
  0
ENDBLK
  5
5D0
  8
0
  0
BLOCK
  8
0
  2
*D15
 70
     1
 10
0.0
 20
0.0
 30
0.0
  3
*D15
  1

  0
LINE
  5
5F5
  8
0
  6
BYBLOCK
 62
     0
 10
99.375
 20
23.0
 30
0.0
 11
81.139312
 21
23.0
 31
0.0
  0
LINE
  5
5F6
  8
0
  6
BYBLOCK
 62
     0
 10
99.375
 20
60.0
 30
0.0
 11
81.139312
 21
60.0
 31
0.0
  0
LINE
  5
5F7
  8
0
  6
BYBLOCK
 62
     0
 10
82.389312
 20
25.5
 30
0.0
 11
82.389312
 21
57.5
 31
0.0
  0
SOLID
  5
5F8
  8
0
  6
BYBLOCK
 62
     0
 10
81.972645
 20
25.5
 30
0.0
 11
82.805979
 21
25.5
 31
0.0
 12
82.389312
 22
23.0
 32
0.0
 13
82.389312
 23
23.0
 33
0.0
  0
SOLID
  5
5F9
  8
0
  6
BYBLOCK
 62
     0
 10
81.972645
 20
57.5
 30
0.0
 11
82.805979
 21
57.5
 31
0.0
 12
82.389312
 22
60.0
 32
0.0
 13
82.389312
 23
60.0
 33
0.0
  0
TEXT
  8
0
  40
3
  5
797
  62
0
  72
0
  71
0
 10
74.0893
 20
36.1900
 30
0.000000
  1
37
  0
POINT
  5
5FB
  8
DEFPOINTS
  6
BYBLOCK
 62
     0
 10
100.0
 20
23.0
 30
0.0
  0
POINT
  5
5FC
  8
DEFPOINTS
  6
BYBLOCK
 62
     0
 10
100.0
 20
60.0
 30
0.0
  0
POINT
  5
5FD
  8
DEFPOINTS
  6
BYBLOCK
 62
     0
 10
82.389312
 20
60.0
 30
0.0
  0
ENDBLK
  5
5FE
  8
0
  0
BLOCK
  8
0
  2
*D16
 70
     1
 10
0.0
 20
0.0
 30
0.0
  3
*D16
  1

  0
LINE
  5
65E
  8
0
  6
BYBLOCK
 62
     0
 10
252.0
 20
199.690996
 30
0.0
 11
252.0
 21
226.868116
 31
0.0
  0
LINE
  5
65F
  8
0
  6
BYBLOCK
 62
     0
 10
308.0
 20
199.690996
 30
0.0
 11
308.0
 21
226.868116
 31
0.0
  0
LINE
  5
660
  8
0
  6
BYBLOCK
 62
     0
 10
254.5
 20
225.618116
 30
0.0
 11
305.5
 21
225.618116
 31
0.0
  0
SOLID
  5
661
  8
0
  6
BYBLOCK
 62
     0
 10
254.5
 20
226.034783
 30
0.0
 11
254.5
 21
225.201449
 31
0.0
 12
252.0
 22
225.618116
 32
0.0
 13
252.0
 23
225.618116
 33
0.0
  0
SOLID
  5
662
  8
0
  6
BYBLOCK
 62
     0
 10
305.5
 20
226.034783
 30
0.0
 11
305.5
 21
225.201449
 31
0.0
 12
308.0
 22
225.618116
 32
0.0
 13
308.0
 23
225.618116
 33
0.0
  0
TEXT
  8
0
  40
3
  5
798
  62
0
  72
0
  71
0
 10
274.000
 20
222.608
 30
0.000000
  1
56
  0
POINT
  5
664
  8
DEFPOINTS
  6
BYBLOCK
 62
     0
 10
252.0
 20
199.065996
 30
0.0
  0
POINT
  5
665
  8
DEFPOINTS
  6
BYBLOCK
 62
     0
 10
308.0
 20
199.065996
 30
0.0
  0
POINT
  5
666
  8
DEFPOINTS
  6
BYBLOCK
 62
     0
 10
308.0
 20
225.618116
 30
0.0
  0
ENDBLK
  5
667
  8
0
  0
ENDSEC
  0
SECTION
  2
ENTITIES
  0
POLYLINE
  5
EA
  8
0
 66
     1
 10
0.0
 20
0.0
 30
0.0
 70
     1
  0
VERTEX
  5
6FE
  8
0
 10
142.9
 20
60.0
 30
0.0
  0
VERTEX
  5
6FF
  8
0
 10
57.1
 20
60.0
 30
0.0
  0
VERTEX
  5
700
  8
0
 10
57.1
 20
70.0
 30
0.0
  0
VERTEX
  5
701
  8
0
 10
142.9
 20
70.0
 30
0.0
  0
SEQEND
  5
702
  8
0
  0
POLYLINE
  5
EB
  8
0
 66
     1
 10
0.0
 20
0.0
 30
0.0
 70
     1
  0
VERTEX
  5
703
  8
0
 10
57.1
 20
60.0
 30
0.0
  0
VERTEX
  5
704
  8
0
 10
142.9
 20
60.0
 30
0.0
  0
VERTEX
  5
705
  8
0
 10
142.9
 20
126.0
 30
0.0
  0
VERTEX
  5
706
  8
0
 10
57.1
 20
126.0
 30
0.0
  0
SEQEND
  5
707
  8
0
  0
POLYLINE
  5
EC
  8
0
 66
     1
 10
0.0
 20
0.0
 30
0.0
 70
     1
  0
VERTEX
  5
708
  8
0
 10
63.5
 20
60.0
 30
0.0
  0
VERTEX
  5
709
  8
0
 10
136.5
 20
60.0
 30
0.0
  0
VERTEX
  5
70A
  8
0
 10
136.5
 20
59.0
 30
0.0
  0
VERTEX
  5
70B
  8
0
 10
63.5
 20
59.0
 30
0.0
  0
SEQEND
  5
70C
  8
0
  0
POLYLINE
  5
ED
  8
0
 66
     1
 10
0.0
 20
0.0
 30
0.0
  0
VERTEX
  5
70D
  8
0
 10
100.826325
 20
137.1
 30
0.0
  0
VERTEX
  5
70E
  8
0
 10
62.1
 20
137.1
 30
0.0
 42
-0.414214
  0
VERTEX
  5
70F
  8
0
 10
57.1
 20
142.1
 30
0.0
  0
VERTEX
  5
710
  8
0
 10
57.1
 20
179.476373
 30
0.0
  0
SEQEND
  5
711
  8
0
  0
POLYLINE
  5
EE
  8
0
 66
     1
 10
0.0
 20
0.0
 30
0.0
  0
VERTEX
  5
712
  8
0
 10
100.826325
 20
222.9
 30
0.0
  0
VERTEX
  5
713
  8
0
 10
62.1
 20
222.9
 30
0.0
 42
0.414214
  0
VERTEX
  5
714
  8
0
 10
57.1
 20
217.9
 30
0.0
  0
VERTEX
  5
715
  8
0
 10
57.1
 20
180.523627
 30
0.0
  0
SEQEND
  5
716
  8
0
  0
CIRCLE
  5
EF
  8
0
 10
100.0
 20
180.0
 30
0.0
 40
36.5
  0
LINE
  5
F0
  8
AXES2
 10
146.078408
 20
180.0
 30
0.0
 11
53.921592
 21
180.0
 31
0.0
  0
CIRCLE
  5
F1
  8
0
 10
65.2
 20
145.2
 30
0.0
 40
3.3
  0
LINE
  5
F2
  8
AXES2
 10
65.2
 20
154.027996
 30
0.0
 11
65.2
 21
136.372004
 31
0.0
  0
LINE
  5
F3
  8
AXES2
 10
55.535424
 20
145.2
 30
0.0
 11
74.864575
 21
145.2
 31
0.0
  0
ARC
  5
F4
  8
CACHE
 10
65.2
 20
145.2
 30
0.0
 40
6.340423
 50
0.0
 51
90.0
  0
LINE
  5
F5
  8
CACHE
 10
71.540423
 20
145.2
 30
0.0
 11
71.540423
 21
137.1
 31
0.0
  0
LINE
  5
F6
  8
CACHE
 10
65.2
 20
151.540423
 30
0.0
 11
57.1
 21
151.540423
 31
0.0
  0
LINE
  5
F7
  8
AXES2
 10
65.2
 20
78.631433
 30
0.0
 11
65.2
 21
54.483646
 31
0.0
  0
LINE
  5
F8
  8
CACHE
 10
68.5
 20
70.0
 30
0.0
 11
68.5
 21
60.0
 31
0.0
  0
LINE
  5
F9
  8
CACHE
 10
61.9
 20
70.0
 30
0.0
 11
61.9
 21
60.0
 31
0.0
  0
LINE
  5
FA
  8
CACHE
 10
65.2
 20
208.459577
 30
0.0
 11
57.1
 21
208.459577
 31
0.0
  0
LINE
  5
FB
  8
CACHE
 10
71.540423
 20
214.8
 30
0.0
 11
71.540423
 21
222.9
 31
0.0
  0
ARC
  5
FC
  8
CACHE
 10
65.2
 20
214.8
 30
0.0
 40
6.340423
 50
270.0
 51
0.0
  0
LINE
  5
FD
  8
AXES2
 10
55.535424
 20
214.8
 30
0.0
 11
74.864575
 21
214.8
 31
0.0
  0
LINE
  5
FE
  8
AXES2
 10
65.2
 20
205.972004
 30
0.0
 11
65.2
 21
223.627996
 31
0.0
  0
CIRCLE
  5
FF
  8
0
 10
65.2
 20
214.8
 30
0.0
 40
3.3
  0
POLYLINE
  5
100
  8
0
 66
     1
 10
0.0
 20
0.0
 30
0.0
 70
     1
  0
VERTEX
  5
717
  8
0
 10
195.23
 20
30.8
 30
0.0
  0
VERTEX
  5
718
  8
0
 10
204.77
 20
30.8
 30
0.0
  0
VERTEX
  5
719
  8
0
 10
204.77
 20
59.0
 30
0.0
  0
VERTEX
  5
71A
  8
0
 10
195.23
 20
59.0
 30
0.0
  0
SEQEND
  5
71B
  8
0
  0
LINE
  5
101
  8
AXES2
 10
200.0
 20
130.936519
 30
0.0
 11
200.0
 21
24.04739
 31
0.0
  0
POLYLINE
  5
102
  8
0
 66
     1
 10
0.0
 20
0.0
 30
0.0
 70
     1
  0
VERTEX
  5
71C
  8
0
 10
93.0
 20
59.0
 30
0.0
  0
VERTEX
  5
71D
  8
0
 10
107.0
 20
59.0
 30
0.0
  0
VERTEX
  5
71E
  8
0
 10
107.0
 20
23.8
 30
0.0
  0
VERTEX
  5
71F
  8
0
 10
93.0
 20
23.8
 30
0.0
  0
SEQEND
  5
720
  8
0
  0
POLYLINE
  5
107
  8
0
 66
     1
 10
0.0
 20
0.0
 30
0.0
 70
     1
  0
VERTEX
  5
721
  8
0
 10
195.23
 20
30.8
 30
0.0
  0
VERTEX
  5
722
  8
0
 10
204.77
 20
30.8
 30
0.0
  0
VERTEX
  5
723
  8
0
 10
203.97
 20
30.0
 30
0.0
  0
VERTEX
  5
724
  8
0
 10
196.03
 20
30.0
 30
0.0
  0
SEQEND
  5
725
  8
0
  0
POLYLINE
  5
108
  8
0
 66
     1
 10
0.0
 20
0.0
 30
0.0
 70
     1
  0
VERTEX
  5
726
  8
0
 10
93.8
 20
23.0
 30
0.0
  0
VERTEX
  5
727
  8
0
 10
106.2
 20
23.0
 30
0.0
  0
VERTEX
  5
728
  8
0
 10
107.0
 20
23.8
 30
0.0
  0
VERTEX
  5
729
  8
0
 10
93.0
 20
23.8
 30
0.0
  0
SEQEND
  5
72A
  8
0
  0
CIRCLE
  5
123
  8
CACHE
 10
200.0
 20
180.0
 30
0.0
 40
43.5
  0
CIRCLE
  5
124
  8
0
 10
280.0
 20
180.0
 30
0.0
 40
3.175
  0
ARC
  5
125
  8
0
 10
200.0
 20
180.0
 30
0.0
 40
43.5
 50
340.480655
 51
19.519345
  0
ARC
  5
126
  8
0
 10
200.0
 20
180.0
 30
0.0
 40
43.5
 50
160.480655
 51
199.519345
  0
LINE
  5
127
  8
AXES2
 10
200.0
 20
226.583272
 30
0.0
 11
200.0
 21
133.416728
 31
0.0
  0
CIRCLE
  5
128
  8
0
 10
200.0
 20
180.0
 30
0.0
 40
36.5
  0
CIRCLE
  5
129
  8
0
 10
200.0
 20
180.0
 30
0.0
 40
4.7625
  0
CIRCLE
  5
12A
  8
0
 10
100.0
 20
180.0
 30
0.0
 40
7.0
  0
LINE
  5
12B
  8
AXES2
 10
100.0
 20
225.605612
 30
0.0
 11
100.0
 21
134.394389
 31
0.0
  0
POLYLINE
  5
12C
  8
0
 66
     1
 10
0.0
 20
0.0
 30
0.0
  0
VERTEX
  5
72B
  8
0
 10
99.173675
 20
137.1
 30
0.0
  0
VERTEX
  5
72C
  8
0
 10
137.9
 20
137.1
 30
0.0
 42
0.414214
  0
VERTEX
  5
72D
  8
0
 10
142.9
 20
142.1
 30
0.0
  0
VERTEX
  5
72E
  8
0
 10
142.9
 20
179.476373
 30
0.0
  0
SEQEND
  5
72F
  8
0
  0
CIRCLE
  5
12D
  8
0
 10
280.0
 20
180.0
 30
0.0
 40
19.05
  0
LINE
  5
12E
  8
AXES2
 10
280.0
 20
210.923779
 30
0.0
 11
280.0
 21
149.076221
 31
0.0
  0
CIRCLE
  5
12F
  8
CACHE
 10
280.0
 20
180.0
 30
0.0
 40
28.0
  0
POLYLINE
  5
130
  8
0
 66
     1
 10
0.0
 20
0.0
 30
0.0
 70
     1
  0
VERTEX
  5
730
  8
0
 10
252.0
 20
206.0
 30
0.0
  0
VERTEX
  5
731
  8
0
 10
252.0
 20
154.0
 30
0.0
 42
0.414214
  0
VERTEX
  5
732
  8
0
 10
254.0
 20
152.0
 30
0.0
  0
VERTEX
  5
733
  8
0
 10
306.0
 20
152.0
 30
0.0
 42
0.414214
  0
VERTEX
  5
734
  8
0
 10
308.0
 20
154.0
 30
0.0
  0
VERTEX
  5
735
  8
0
 10
308.0
 20
206.0
 30
0.0
 42
0.414214
  0
VERTEX
  5
736
  8
0
 10
306.0
 20
208.0
 30
0.0
  0
VERTEX
  5
737
  8
0
 10
254.0
 20
208.0
 30
0.0
 42
0.414214
  0
SEQEND
  5
738
  8
0
  0
POLYLINE
  5
131
  8
0
 66
     1
 10
0.0
 20
0.0
 30
0.0
  0
VERTEX
  5
739
  8
0
 10
163.5
 20
60.0
 30
0.0
  0
VERTEX
  5
73A
  8
0
 10
163.5
 20
59.0
 30
0.0
  0
VERTEX
  5
73B
  8
0
 10
236.5
 20
59.0
 30
0.0
  0
VERTEX
  5
73C
  8
0
 10
236.5
 20
60.0
 30
0.0
  0
SEQEND
  5
73D
  8
0
  0
POLYLINE
  5
132
  8
0
 66
     1
 10
0.0
 20
0.0
 30
0.0
 70
     1
  0
VERTEX
  5
73E
  8
0
 10
156.5
 20
60.0
 30
0.0
  0
VERTEX
  5
73F
  8
0
 10
243.5
 20
60.0
 30
0.0
  0
VERTEX
  5
740
  8
0
 10
243.5
 20
65.0
 30
0.0
  0
VERTEX
  5
741
  8
0
 10
156.5
 20
65.0
 30
0.0
  0
SEQEND
  5
742
  8
0
  0
POLYLINE
  5
133
  8
0
 66
     1
 10
0.0
 20
0.0
 30
0.0
 70
     1
  0
VERTEX
  5
743
  8
0
 10
156.5
 20
65.0
 30
0.0
  0
VERTEX
  5
744
  8
0
 10
243.5
 20
65.0
 30
0.0
  0
VERTEX
  5
745
  8
0
 10
243.5
 20
126.0
 30
0.0
  0
VERTEX
  5
746
  8
0
 10
156.5
 20
126.0
 30
0.0
  0
SEQEND
  5
747
  8
0
  0
ARC
  5
134
  8
0
 10
200.0
 20
180.0
 30
0.0
 40
43.5
 50
250.480655
 51
289.519345
  0
LINE
  5
135
  8
CACHE
 10
134.8
 20
151.540423
 30
0.0
 11
142.9
 21
151.540423
 31
0.0
  0
LINE
  5
136
  8
CACHE
 10
128.459577
 20
145.2
 30
0.0
 11
128.459577
 21
137.1
 31
0.0
  0
ARC
  5
137
  8
CACHE
 10
134.8
 20
145.2
 30
0.0
 40
6.340423
 50
90.0
 51
180.0
  0
CIRCLE
  5
138
  8
0
 10
165.2
 20
145.2
 30
0.0
 40
2.815
  0
LINE
  5
139
  8
AXES2
 10
165.2
 20
153.077996
 30
0.0
 11
165.2
 21
137.322004
 31
0.0
  0
LINE
  5
13A
  8
AXES2
 10
156.485424
 20
145.2
 30
0.0
 11
173.914575
 21
145.2
 31
0.0
  0
LINE
  5
13B
  8
0
 10
159.0
 20
65.0
 30
0.0
 11
159.0
 21
60.0
 31
0.0
  0
LINE
  5
13C
  8
AXES2
 10
165.2
 20
70.360516
 30
0.0
 11
165.2
 21
56.390915
 31
0.0
  0
LINE
  5
13D
  8
CACHE
 10
162.385
 20
65.0
 30
0.0
 11
162.385
 21
60.0
 31
0.0
  0
LINE
  5
13E
  8
CACHE
 10
168.015
 20
65.0
 30
0.0
 11
168.015
 21
60.0
 31
0.0
  0
LINE
  5
13F
  8
AXES2
 10
134.8
 20
77.550861
 30
0.0
 11
134.8
 21
54.483646
 31
0.0
  0
LINE
  5
140
  8
CACHE
 10
131.5
 20
70.0
 30
0.0
 11
131.5
 21
60.0
 31
0.0
  0
LINE
  5
141
  8
CACHE
 10
138.1
 20
70.0
 30
0.0
 11
138.1
 21
60.0
 31
0.0
  0
POLYLINE
  5
142
  8
0
 66
     1
 10
0.0
 20
0.0
 30
0.0
  0
VERTEX
  5
748
  8
0
 10
159.0
 20
165.465558
 30
0.0
  0
VERTEX
  5
749
  8
0
 10
159.0
 20
144.0
 30
0.0
 42
0.414214
  0
VERTEX
  5
74A
  8
0
 10
164.0
 20
139.0
 30
0.0
  0
VERTEX
  5
74B
  8
0
 10
185.465558
 20
139.0
 30
0.0
  0
SEQEND
  5
74C
  8
0
  0
LINE
  5
143
  8
AXES2
 10
144.464576
 20
145.2
 30
0.0
 11
125.135425
 21
145.2
 31
0.0
  0
CIRCLE
  5
144
  8
0
 10
134.8
 20
145.2
 30
0.0
 40
3.3
  0
LINE
  5
145
  8
AXES2
 10
134.8
 20
154.027996
 30
0.0
 11
134.8
 21
136.372004
 31
0.0
  0
LINE
  5
146
  8
0
 10
241.0
 20
65.0
 30
0.0
 11
241.0
 21
60.0
 31
0.0
  0
LINE
  5
147
  8
CACHE
 10
231.985
 20
65.0
 30
0.0
 11
231.985
 21
60.0
 31
0.0
  0
LINE
  5
148
  8
CACHE
 10
237.615
 20
65.0
 30
0.0
 11
237.615
 21
60.0
 31
0.0
  0
LINE
  5
149
  8
AXES2
 10
234.8
 20
70.360516
 30
0.0
 11
234.8
 21
56.390915
 31
0.0
  0
POLYLINE
  5
14B
  8
0
 66
     1
 10
0.0
 20
0.0
 30
0.0
 70
     1
  0
VERTEX
  5
74D
  8
0
 10
276.824785
 20
60.500033
 30
0.0
  0
VERTEX
  5
74E
  8
0
 10
283.174785
 20
60.500038
 30
0.0
  0
VERTEX
  5
74F
  8
0
 10
282.674779
 20
59.999972
 30
0.0
  0
VERTEX
  5
750
  8
0
 10
277.324779
 20
60.000028
 30
0.0
  0
SEQEND
  5
751
  8
0
  0
POLYLINE
  5
14C
  8
0
 66
     1
 10
0.0
 20
0.0
 30
0.0
  0
VERTEX
  5
752
  8
0
 10
276.825038
 20
88.500142
 30
0.0
  0
VERTEX
  5
753
  8
0
 10
276.824785
 20
60.500033
 30
0.0
  0
VERTEX
  5
754
  8
0
 10
283.174785
 20
60.500016
 30
0.0
  0
VERTEX
  5
755
  8
0
 10
283.174945
 20
88.500209
 30
0.0
  0
SEQEND
  5
756
  8
0
  0
LINE
  5
14D
  8
AXES2
 10
243.514576
 20
145.2
 30
0.0
 11
226.085425
 21
145.2
 31
0.0
  0
CIRCLE
  5
14E
  8
0
 10
234.8
 20
145.2
 30
0.0
 40
2.815
  0
POLYLINE
  5
14F
  8
0
 66
     1
 10
0.0
 20
0.0
 30
0.0
  0
VERTEX
  5
757
  8
0
 10
214.534442
 20
139.0
 30
0.0
  0
VERTEX
  5
758
  8
0
 10
236.0
 20
139.0
 30
0.0
 42
0.414214
  0
VERTEX
  5
759
  8
0
 10
241.0
 20
144.0
 30
0.0
  0
VERTEX
  5
75A
  8
0
 10
241.0
 20
165.465558
 30
0.0
  0
SEQEND
  5
75B
  8
0
  0
LINE
  5
150
  8
AXES2
 10
234.8
 20
153.077996
 30
0.0
 11
234.8
 21
137.322004
 31
0.0
  0
POLYLINE
  5
158
  8
0
 66
     1
 10
0.0
 20
0.0
 30
0.0
  0
VERTEX
  5
75C
  8
0
 10
276.824785
 20
60.500033
 30
0.0
  0
VERTEX
  5
75D
  8
0
 10
277.324779
 20
60.000028
 30
0.0
  0
VERTEX
  5
75E
  8
0
 10
282.674779
 20
59.999972
 30
0.0
  0
VERTEX
  5
75F
  8
0
 10
283.174785
 20
60.499967
 30
0.0
  0
SEQEND
  5
760
  8
0
  0
LINE
  5
159
  8
CACHE
 10
276.824785
 20
60.500033
 30
0.0
 11
283.174785
 21
60.499967
 31
0.0
  0
LINE
  5
15C
  8
0
 10
308.000019
 20
93.999708
 30
0.0
 11
252.000019
 21
94.000292
 31
0.0
  0
LINE
  5
15D
  8
CACHE
 10
258.187519
 20
94.000227
 30
0.0
 11
258.187478
 21
90.000227
 31
0.0
  0
LINE
  5
15E
  8
CACHE
 10
254.187519
 20
94.000269
 30
0.0
 11
254.187478
 21
90.000269
 31
0.0
  0
LINE
  5
15F
  8
AXES2
 10
256.187581
 20
99.910806
 30
0.0
 11
256.187407
 21
83.205138
 31
0.0
  0
LINE
  5
160
  8
AXES2
 10
303.812581
 20
99.91031
 30
0.0
 11
303.812407
 21
83.204642
 31
0.0
  0
LINE
  5
161
  8
CACHE
 10
305.812519
 20
93.999731
 30
0.0
 11
305.812478
 21
89.999731
 31
0.0
  0
LINE
  5
162
  8
CACHE
 10
301.812519
 20
93.999773
 30
0.0
 11
301.812478
 21
89.999773
 31
0.0
  0
LINE
  5
163
  8
AXES2
 10
279.999896
 20
62.064113
 30
0.0
 11
280.000198
 21
143.105751
 31
0.0
  0
POLYLINE
  5
164
  8
0
 66
     1
 10
0.0
 20
0.0
 30
0.0
 70
     1
  0
VERTEX
  5
761
  8
0
 10
251.999978
 20
90.000292
 30
0.0
  0
VERTEX
  5
762
  8
0
 10
252.000499
 20
140.000292
 30
0.0
  0
VERTEX
  5
763
  8
0
 10
308.000499
 20
139.999708
 30
0.0
  0
VERTEX
  5
764
  8
0
 10
307.999978
 20
89.999708
 30
0.0
  0
SEQEND
  5
765
  8
0
  0
LINE
  5
165
  8
AXES2
 10
259.726982
 20
156.187248
 30
0.0
 11
252.647512
 21
156.187248
 31
0.0
  0
LINE
  5
166
  8
AXES2
 10
256.187247
 20
159.587555
 30
0.0
 11
256.187247
 21
152.78694
 31
0.0
  0
CIRCLE
  5
167
  8
0
 10
256.187247
 20
156.187248
 30
0.0
 40
2.0
  0
LINE
  5
168
  8
AXES2
 10
303.812752
 20
159.587555
 30
0.0
 11
303.812752
 21
152.78694
 31
0.0
  0
CIRCLE
  5
169
  8
0
 10
303.812752
 20
156.187248
 30
0.0
 40
2.0
  0
LINE
  5
16A
  8
AXES2
 10
300.273017
 20
156.187248
 30
0.0
 11
307.352487
 21
156.187248
 31
0.0
  0
LINE
  5
16B
  8
AXES2
 10
249.256815
 20
180.0
 30
0.0
 11
150.743185
 21
180.0
 31
0.0
  0
ARC
  5
16C
  8
0
 10
200.0
 20
180.0
 30
0.0
 40
43.5
 50
70.480655
 51
109.519345
  0
CIRCLE
  5
16D
  8
0
 10
134.8
 20
214.8
 30
0.0
 40
3.3
  0
LINE
  5
16E
  8
AXES2
 10
134.8
 20
205.972004
 30
0.0
 11
134.8
 21
223.627996
 31
0.0
  0
LINE
  5
16F
  8
AXES2
 10
144.464576
 20
214.8
 30
0.0
 11
125.135425
 21
214.8
 31
0.0
  0
ARC
  5
170
  8
CACHE
 10
134.8
 20
214.8
 30
0.0
 40
6.340423
 50
180.0
 51
270.0
  0
LINE
  5
171
  8
CACHE
 10
128.459577
 20
214.8
 30
0.0
 11
128.459577
 21
222.9
 31
0.0
  0
LINE
  5
172
  8
CACHE
 10
134.8
 20
208.459577
 30
0.0
 11
142.9
 21
208.459577
 31
0.0
  0
LINE
  5
173
  8
AXES2
 10
156.485424
 20
214.8
 30
0.0
 11
173.914575
 21
214.8
 31
0.0
  0
LINE
  5
174
  8
AXES2
 10
165.2
 20
206.922004
 30
0.0
 11
165.2
 21
222.677996
 31
0.0
  0
CIRCLE
  5
175
  8
0
 10
165.2
 20
214.8
 30
0.0
 40
2.815
  0
POLYLINE
  5
176
  8
0
 66
     1
 10
0.0
 20
0.0
 30
0.0
  0
VERTEX
  5
766
  8
0
 10
185.465558
 20
221.0
 30
0.0
  0
VERTEX
  5
767
  8
0
 10
164.0
 20
221.0
 30
0.0
 42
0.414214
  0
VERTEX
  5
768
  8
0
 10
159.0
 20
216.0
 30
0.0
  0
VERTEX
  5
769
  8
0
 10
159.0
 20
194.534442
 30
0.0
  0
SEQEND
  5
76A
  8
0
  0
POLYLINE
  5
177
  8
0
 66
     1
 10
0.0
 20
0.0
 30
0.0
  0
VERTEX
  5
76B
  8
0
 10
99.173675
 20
222.9
 30
0.0
  0
VERTEX
  5
76C
  8
0
 10
137.9
 20
222.9
 30
0.0
 42
-0.414214
  0
VERTEX
  5
76D
  8
0
 10
142.9
 20
217.9
 30
0.0
  0
VERTEX
  5
76E
  8
0
 10
142.9
 20
180.523627
 30
0.0
  0
SEQEND
  5
76F
  8
0
  0
CIRCLE
  5
178
  8
0
 10
234.8
 20
214.8
 30
0.0
 40
2.815
  0
LINE
  5
179
  8
AXES2
 10
234.8
 20
206.922004
 30
0.0
 11
234.8
 21
222.677996
 31
0.0
  0
LINE
  5
17A
  8
AXES2
 10
243.514576
 20
214.8
 30
0.0
 11
226.085425
 21
214.8
 31
0.0
  0
POLYLINE
  5
17B
  8
0
 66
     1
 10
0.0
 20
0.0
 30
0.0
  0
VERTEX
  5
770
  8
0
 10
241.0
 20
194.534442
 30
0.0
  0
VERTEX
  5
771
  8
0
 10
241.0
 20
216.0
 30
0.0
 42
0.414214
  0
VERTEX
  5
772
  8
0
 10
236.0
 20
221.0
 30
0.0
  0
VERTEX
  5
773
  8
0
 10
214.534442
 20
221.0
 30
0.0
  0
SEQEND
  5
774
  8
0
  0
LINE
  5
17C
  8
AXES2
 10
300.273017
 20
203.812753
 30
0.0
 11
307.352487
 21
203.812753
 31
0.0
  0
LINE
  5
17D
  8
AXES2
 10
303.812752
 20
200.412445
 30
0.0
 11
303.812752
 21
207.21306
 31
0.0
  0
CIRCLE
  5
17E
  8
0
 10
303.812752
 20
203.812753
 30
0.0
 40
2.0
  0
LINE
  5
17F
  8
AXES2
 10
256.187247
 20
200.412445
 30
0.0
 11
256.187247
 21
207.21306
 31
0.0
  0
LINE
  5
180
  8
AXES2
 10
310.785156
 20
180.0
 30
0.0
 11
249.214844
 21
180.0
 31
0.0
  0
CIRCLE
  5
181
  8
0
 10
256.187247
 20
203.812753
 30
0.0
 40
2.0
  0
LINE
  5
182
  8
AXES2
 10
259.726982
 20
203.812753
 30
0.0
 11
252.647512
 21
203.812753
 31
0.0
  0
LINE
  5
183
  8
AXES2
 10
100.0
 20
128.0
 30
0.0
 11
100.0
 21
20.811866
 31
0.0
  0
POLYLINE
  5
19D
  8
0
 66
     1
 10
0.0
 20
0.0
 30
0.0
  0
VERTEX
  5
775
  8
0
 10
260.95
 20
90.000209
 30
0.0
  0
VERTEX
  5
776
  8
0
 10
260.95
 20
88.500209
 30
0.0
  0
VERTEX
  5
777
  8
0
 10
299.05
 20
88.500209
 30
0.0
  0
VERTEX
  5
778
  8
0
 10
299.05
 20
89.999791
 30
0.0
  0
SEQEND
  5
779
  8
0
  0
POLYLINE
  5
1A0
  8
0
 66
     1
 10
0.0
 20
0.0
 30
0.0
 70
     1
  0
VERTEX
  5
77A
  8
0
 10
50.0
 20
0.0
 30
0.0
  0
VERTEX
  5
77B
  8
0
 10
320.0
 20
0.0
 30
0.0
  0
VERTEX
  5
77C
  8
0
 10
320.0
 20
240.0
 30
0.0
  0
VERTEX
  5
77D
  8
0
 10
50.0
 20
240.0
 30
0.0
  0
SEQEND
  5
77E
  8
0
  0
DIMENSION
  5
1AE
  8
COTATION
  2
*D1
 10
204.77
 20
25.375691
 30
0.0
 11
212.57
 21
25.375691
 31
0.0
 70
   128
 13
195.23
 23
30.8
 33
0.0
 14
204.77
 24
30.8
 34
0.0
1001
ACAD
1000
DSTYLE
1002
{
1070
   140
1040
3.0
1070
   272
1070
     2
1070
   147
1040
0.8
1070
   271
1070
     2
1002
}
  0
DIMENSION
  5
1D1
  8
COTATION
  2
*D2
 10
236.5
 20
19.187786
 30
0.0
 11
200.0
 21
21.487786
 31
0.0
 70
     1
 13
163.5
 23
59.0
 33
0.0
 14
236.5
 24
59.0
 34
0.0
1001
ACAD
1000
DSTYLE
1002
{
1070
   140
1040
3.0
1070
   272
1070
     2
1070
   147
1040
0.8
1070
   271
1070
     2
1002
}
  0
DIMENSION
  5
1E9
  8
COTATION
  2
*D3
 10
234.8
 20
227.800639
 30
0.0
 11
200.0
 21
230.100639
 31
0.0
 70
     0
 13
165.2
 23
221.0
 33
0.0
 14
234.8
 24
221.0
 34
0.0
1001
ACAD
1000
DSTYLE
1002
{
1070
   140
1040
3.0
1070
   272
1070
     2
1070
   147
1040
0.8
1070
   271
1070
     2
1002
}
  0
DIMENSION
  5
1F6
  8
COTATION
  2
*D4
 10
303.812752
 20
217.410769
 30
0.0
 11
280.0
 21
219.710769
 31
0.0
 70
     0
 13
256.187247
 23
207.21306
 33
0.0
 14
303.812752
 24
207.21306
 34
0.0
1001
ACAD
1000
DSTYLE
1002
{
1070
   140
1040
3.0
1070
   272
1070
     2
1070
   147
1040
0.8
1070
   271
1070
     2
1002
}
  0
DIMENSION
  5
20F
  8
COTATION
  2
*D5
 10
283.174785
 20
56.142017
 30
0.0
 11
293.474785
 21
58.442017
 31
0.0
 70
     0
 13
276.824785
 23
60.500033
 33
0.0
 14
283.174785
 24
60.499967
 34
0.0
1001
ACAD
1000
DSTYLE
1002
{
1070
   140
1040
3.0
1070
   272
1070
     2
1070
   147
1040
0.8
1070
   271
1070
     2
1002
}
  0
DIMENSION
  5
228
  8
COTATION
  2
*D6
 10
299.05
 20
49.504328
 30
0.0
 11
280.0
 21
51.804328
 31
0.0
 70
     0
 13
260.95
 23
88.500209
 33
0.0
 14
299.05
 24
88.500209
 34
0.0
1001
ACAD
1000
DSTYLE
1002
{
1070
   140
1040
3.0
1070
   272
1070
     2
1070
   147
1040
0.8
1070
   271
1070
     2
1002
}
  0
DIMENSION
  5
235
  8
COTATION
  2
*D7
 10
134.8
 20
227.417802
 30
0.0
 11
100.0
 21
229.717802
 31
0.0
 70
     0
 13
65.2
 23
222.9
 33
0.0
 14
134.8
 24
222.9
 34
0.0
1001
ACAD
1000
DSTYLE
1002
{
1070
   140
1040
3.0
1070
   272
1070
     2
1070
   147
1040
0.8
1070
   271
1070
     2
1002
}
  0
DIMENSION
  5
244
  8
COTATION
  2
*D8
 10
237.615
 20
133.619027
 30
0.0
 11
221.685
 21
133.619027
 31
0.0
 70
   128
 13
231.985
 23
145.2
 33
0.0
 14
237.615
 24
145.2
 34
0.0
1001
ACAD
1000
DSTYLE
1002
{
1070
   140
1040
3.0
1070
   272
1070
     2
1070
   147
1040
0.8
1070
   271
1070
     2
1002
}
  0
DIMENSION
  5
253
  8
COTATION
  2
*D9
 10
258.187247
 20
145.357968
 30
0.0
 11
256.187247
 21
147.657968
 31
0.0
 70
     0
 13
254.187247
 23
156.187248
 33
0.0
 14
258.187247
 24
156.187248
 34
0.0
1001
ACAD
1000
DSTYLE
1002
{
1070
   140
1040
3.0
1070
   272
1070
     2
1070
   147
1040
0.8
1070
   271
1070
     2
1002
}
  0
DIMENSION
  5
260
  8
COTATION
  2
*D10
 10
138.1
 20
131.630089
 30
0.0
 11
123.374566
 21
131.630089
 31
0.0
 70
   128
 13
131.5
 23
145.2
 33
0.0
 14
138.1
 24
145.2
 34
0.0
1001
ACAD
1000
DSTYLE
1002
{
1070
   140
1040
3.0
1070
   272
1070
     2
1070
   147
1040
0.8
1070
   271
1070
     2
1002
}
  0
DIMENSION
  5
2B6
  8
COTATION
  2
*D11
 10
107.0
 20
18.926934
 30
0.0
 11
113.462497
 21
18.926934
 31
0.0
 70
   128
 13
93.0
 23
23.8
 33
0.0
 14
107.0
 24
23.8
 34
0.0
1001
ACAD
1000
DSTYLE
1002
{
1070
   140
1040
3.0
1070
   272
1070
     2
1070
   147
1040
0.8
1070
   271
1070
     2
1002
}
  0
DIMENSION
  5
2C3
  8
COTATION
  2
*D12
 10
136.5
 20
12.832325
 30
0.0
 11
100.0
 21
15.132325
 31
0.0
 70
     0
 13
63.5
 23
59.0
 33
0.0
 14
136.5
 24
59.0
 34
0.0
1001
ACAD
1000
DSTYLE
1002
{
1070
   140
1040
3.0
1070
   272
1070
     2
1070
   147
1040
0.8
1070
   271
1070
     2
1002
}
  0
DIMENSION
  5
2D0
  8
COTATION
  2
*D13
 10
142.9
 20
233.119251
 30
0.0
 11
100.0
 21
235.419251
 31
0.0
 70
     0
 13
57.1
 23
214.8
 33
0.0
 14
142.9
 24
214.8
 34
0.0
1001
ACAD
1000
DSTYLE
1002
{
1070
   140
1040
3.0
1070
   272
1070
     2
1070
   147
1040
0.8
1070
   271
1070
     2
1002
}
  0
DIMENSION
  5
2DD
  8
COTATION
  2
*D14
 10
243.5
 20
233.386918
 30
0.0
 11
200.0
 21
235.686918
 31
0.0
 70
     0
 13
156.5
 23
180.0
 33
0.0
 14
243.5
 24
180.0
 34
0.0
1001
ACAD
1000
DSTYLE
1002
{
1070
   140
1040
3.0
1070
   272
1070
     2
1070
   147
1040
0.8
1070
   271
1070
     2
1002
}
  0
TEXT
  5
2E9
  8
0
 10
183.162263
 20
86.563366
 30
0.0
 40
5.0
  1
NEMA 34
  0
TEXT
  5
2EA
  8
0
 10
261.371151
 20
111.038429
 30
0.0
 40
5.0
  1
NEMA 23
  0
TEXT
  5
2EB
  8
0
 10
81.129464
 20
95.307983
 30
0.0
 40
5.0
  1
NANOTEC
  0
LINE
  5
2EC
  8
COTATION
 10
128.459577
 20
126.0
 30
0.0
 11
128.459577
 21
70.0
 31
0.0
  0
LINE
  5
2ED
  8
COTATION
 10
71.540423
 20
126.0
 30
0.0
 11
71.540423
 21
70.0
 31
0.0
  0
TEXT
  8
0
  40
4
  5
799
  72
0
  71
0
 10
244.817
 20
32.9380
 30
0.000000
  1
PRZ - www.cncloisirs.com
  0
TEXT
  8
0
  40
4
  5
79A
  72
0
  71
0
 10
244.817
 20
27.7380
 30
0.000000
  1
Licence: cc by-nc-sa
  0
DIMENSION
  5
312
  8
COTATION
  2
*D15
 10
82.389312
 20
60.0
 30
0.0
 11
80.089312
 21
41.5
 31
0.0
 70
     0
 13
100.0
 23
23.0
 33
0.0
 14
100.0
 24
60.0
 34
0.0
 50
90.0
1001
ACAD
1000
DSTYLE
1002
{
1070
   140
1040
3.0
1070
   272
1070
     2
1070
   147
1040
0.8
1070
   271
1070
     2
1002
}
  0
TEXT
  8
0
  40
3.5
  5
79B
  72
0
  71
0
 10
145.021
 20
9.28990
 30
0.000000
  1
La longueur des moteurs dépend du modèle.
  0
TEXT
  8
0
  40
3.5
  5
79C
  72
0
  71
0
 10
145.021
 20
4.73990
 30
0.000000
  1
La longueur des arbres dépend du modèle.
  0
DIMENSION
  5
375
  8
COTATION
  2
*D16
 10
308.0
 20
225.618116
 30
0.0
 11
280.0
 21
227.918116
 31
0.0
 70
     0
 13
252.0
 23
199.065996
 33
0.0
 14
308.0
 24
199.065996
 34
0.0
1001
ACAD
1000
DSTYLE
1002
{
1070
   140
1040
3.0
1070
   272
1070
     2
1070
   147
1040
0.8
1070
   271
1070
     2
1002
}
  0
POLYLINE
  5
377
  8
0
 66
     1
 10
0.0
 20
0.0
 30
0.0
 70
     1
  0
VERTEX
  5
77F
  8
0
 10
241.711646
 20
16.588315
 30
0.0
  0
VERTEX
  5
780
  8
0
 10
320.0
 20
16.588315
 30
0.0
  0
VERTEX
  5
781
  8
0
 10
320.0
 20
40.553004
 30
0.0
  0
VERTEX
  5
782
  8
0
 10
241.711646
 20
40.553004
 30
0.0
  0
SEQEND
  5
783
  8
0
  0
ENDSEC
  0
EOF
